  0
SECTION
  2
HEADER
  9
$ACADVER
  1
AC1015
  9
$ACADMAINTVER
 70
    20
  9
$DWGCODEPAGE
  3
ANSI_932
  9
$INSBASE
 10
0.0
 20
0.0
 30
0.0
  9
$EXTMIN
 10
14024.06857930153
 20
-7754.720026106723
 30
-0.000000000000013
  9
$EXTMAX
 10
16004.72432361931
 20
-6053.798112758821
 30
0.0000000000000023
  9
$LIMMIN
 10
0.0
 20
0.0
  9
$LIMMAX
 10
8410.0
 20
5940.0
  9
$ORTHOMODE
 70
     0
  9
$REGENMODE
 70
     1
  9
$FILLMODE
 70
     1
  9
$QTEXTMODE
 70
     0
  9
$MIRRTEXT
 70
     1
  9
$LTSCALE
 40
50.0
  9
$ATTMODE
 70
     1
  9
$TEXTSIZE
 40
30.0
  9
$TRACEWID
 40
0.05
  9
$TEXTSTYLE
  7
STANDARD
  9
$CLAYER
  8
TXT1
  9
$CELTYPE
  6
BYLAYER
  9
$CECOLOR
 62
   256
  9
$CELTSCALE
 40
1.0
  9
$DISPSILH
 70
     0
  9
$DIMSCALE
 40
10.0
  9
$DIMASZ
 40
0.5
  9
$DIMEXO
 40
1.0
  9
$DIMDLI
 40
10.0
  9
$DIMRND
 40
0.0
  9
$DIMDLE
 40
0.0
  9
$DIMEXE
 40
0.5
  9
$DIMTP
 40
0.0
  9
$DIMTM
 40
0.0
  9
$DIMTXT
 40
2.399999999999999
  9
$DIMCEN
 40
0.1
  9
$DIMTSZ
 40
0.0
  9
$DIMTOL
 70
     0
  9
$DIMLIM
 70
     0
  9
$DIMTIH
 70
     0
  9
$DIMTOH
 70
     0
  9
$DIMSE1
 70
     0
  9
$DIMSE2
 70
     0
  9
$DIMTAD
 70
     0
  9
$DIMZIN
 70
     8
  9
$DIMBLK
  1
YAZ1
  9
$DIMASO
 70
     1
  9
$DIMSHO
 70
     1
  9
$DIMPOST
  1

  9
$DIMAPOST
  1

  9
$DIMALT
 70
     0
  9
$DIMALTD
 70
     2
  9
$DIMALTF
 40
25.4
  9
$DIMLFAC
 40
1.0
  9
$DIMTOFL
 70
     1
  9
$DIMTVP
 40
1.0
  9
$DIMTIX
 70
     0
  9
$DIMSOXD
 70
     0
  9
$DIMSAH
 70
     1
  9
$DIMBLK1
  1
DOT
  9
$DIMBLK2
  1
DOT
  9
$DIMSTYLE
  2
STANDARD
  9
$DIMCLRD
 70
   256
  9
$DIMCLRE
 70
   256
  9
$DIMCLRT
 70
   256
  9
$DIMTFAC
 40
1.0
  9
$DIMGAP
 40
0.5
  9
$DIMJUST
 70
     0
  9
$DIMSD1
 70
     0
  9
$DIMSD2
 70
     0
  9
$DIMTOLJ
 70
     1
  9
$DIMTZIN
 70
     8
  9
$DIMALTZ
 70
     8
  9
$DIMALTTZ
 70
     8
  9
$DIMUPT
 70
     0
  9
$DIMDEC
 70
     1
  9
$DIMTDEC
 70
     1
  9
$DIMALTU
 70
     2
  9
$DIMALTTD
 70
     2
  9
$DIMTXSTY
  7
STANDARD
  9
$DIMAUNIT
 70
     0
  9
$DIMADEC
 70
     0
  9
$DIMALTRND
 40
0.0
  9
$DIMAZIN
 70
     0
  9
$DIMDSEP
 70
    46
  9
$DIMATFIT
 70
     3
  9
$DIMFRAC
 70
     0
  9
$DIMLDRBLK
  1
DOT
  9
$DIMLUNIT
 70
     2
  9
$DIMLWD
 70
    -2
  9
$DIMLWE
 70
    -2
  9
$DIMTMOVE
 70
     2
  9
$LUNITS
 70
     2
  9
$LUPREC
 70
     1
  9
$SKETCHINC
 40
0.1
  9
$FILLETRAD
 40
0.0
  9
$AUNITS
 70
     0
  9
$AUPREC
 70
     0
  9
$MENU
  1
acad
  9
$ELEVATION
 40
0.0
  9
$PELEVATION
 40
0.0
  9
$THICKNESS
 40
0.0
  9
$LIMCHECK
 70
     0
  9
$CHAMFERA
 40
0.0
  9
$CHAMFERB
 40
0.0
  9
$CHAMFERC
 40
0.0
  9
$CHAMFERD
 40
0.0
  9
$SKPOLY
 70
     0
  9
$TDCREATE
 40
2450494.392910880
  9
$TDUCREATE
 40
2450494.017910880
  9
$TDUPDATE
 40
2455441.468699178
  9
$TDUUPDATE
 40
2455441.093699178
  9
$TDINDWG
 40
1.3208449421
  9
$TDUSRTIMER
 40
1.3208447569
  9
$USRTIMER
 70
     1
  9
$ANGBASE
 50
0.0
  9
$ANGDIR
 70
     0
  9
$PDMODE
 70
     3
  9
$PDSIZE
 40
20.0
  9
$PLINEWID
 40
0.0
  9
$SPLFRAME
 70
     0
  9
$SPLINETYPE
 70
     6
  9
$SPLINESEGS
 70
     8
  9
$HANDSEED
  5
45D5862FBB2020
  9
$SURFTAB1
 70
     6
  9
$SURFTAB2
 70
     6
  9
$SURFTYPE
 70
     6
  9
$SURFU
 70
     6
  9
$SURFV
 70
     6
  9
$UCSBASE
  2

  9
$UCSNAME
  2

  9
$UCSORG
 10
0.0
 20
0.0
 30
0.0
  9
$UCSXDIR
 10
1.0
 20
0.0
 30
0.0
  9
$UCSYDIR
 10
0.0
 20
1.0
 30
0.0
  9
$UCSORTHOREF
  2

  9
$UCSORTHOVIEW
 70
     0
  9
$UCSORGTOP
 10
0.0
 20
0.0
 30
0.0
  9
$UCSORGBOTTOM
 10
0.0
 20
0.0
 30
0.0
  9
$UCSORGLEFT
 10
0.0
 20
0.0
 30
0.0
  9
$UCSORGRIGHT
 10
0.0
 20
0.0
 30
0.0
  9
$UCSORGFRONT
 10
0.0
 20
0.0
 30
0.0
  9
$UCSORGBACK
 10
0.0
 20
0.0
 30
0.0
  9
$PUCSBASE
  2

  9
$PUCSNAME
  2

  9
$PUCSORG
 10
0.0
 20
0.0
 30
0.0
  9
$PUCSXDIR
 10
1.0
 20
0.0
 30
0.0
  9
$PUCSYDIR
 10
0.0
 20
1.0
 30
0.0
  9
$PUCSORTHOREF
  2

  9
$PUCSORTHOVIEW
 70
     0
  9
$PUCSORGTOP
 10
0.0
 20
0.0
 30
0.0
  9
$PUCSORGBOTTOM
 10
0.0
 20
0.0
 30
0.0
  9
$PUCSORGLEFT
 10
0.0
 20
0.0
 30
0.0
  9
$PUCSORGRIGHT
 10
0.0
 20
0.0
 30
0.0
  9
$PUCSORGFRONT
 10
0.0
 20
0.0
 30
0.0
  9
$PUCSORGBACK
 10
0.0
 20
0.0
 30
0.0
  9
$USERI1
 70
     0
  9
$USERI2
 70
     0
  9
$USERI3
 70
     0
  9
$USERI4
 70
     0
  9
$USERI5
 70
     0
  9
$USERR1
 40
0.0
  9
$USERR2
 40
0.0
  9
$USERR3
 40
0.0
  9
$USERR4
 40
0.0
  9
$USERR5
 40
0.0
  9
$WORLDVIEW
 70
     1
  9
$SHADEDGE
 70
     3
  9
$SHADEDIF
 70
    70
  9
$TILEMODE
 70
     1
  9
$MAXACTVP
 70
    16
  9
$PINSBASE
 10
0.0
 20
0.0
 30
0.0
  9
$PLIMCHECK
 70
     0
  9
$PEXTMIN
 10
1.000000000000000E+20
 20
1.000000000000000E+20
 30
1.000000000000000E+20
  9
$PEXTMAX
 10
-1.000000000000000E+20
 20
-1.000000000000000E+20
 30
-1.000000000000000E+20
  9
$PLIMMIN
 10
0.0
 20
0.0
  9
$PLIMMAX
 10
12.0
 20
9.0
  9
$UNITMODE
 70
     0
  9
$VISRETAIN
 70
     0
  9
$PLINEGEN
 70
     0
  9
$PSLTSCALE
 70
     0
  9
$TREEDEPTH
 70
  3020
  9
$CMLSTYLE
  2
STANDARD
  9
$CMLJUST
 70
     0
  9
$CMLSCALE
 40
1.0
  9
$PROXYGRAPHICS
 70
     1
  9
$MEASUREMENT
 70
     0
  9
$CELWEIGHT
370
    -1
  9
$ENDCAPS
280
     0
  9
$JOINSTYLE
280
     0
  9
$LWDISPLAY
290
     1
  9
$INSUNITS
 70
     0
  9
$HYPERLINKBASE
  1

  9
$STYLESHEET
  1
monochrome.ctb
  9
$XEDIT
290
     1
  9
$CEPSNTYPE
380
     0
  9
$PSTYLEMODE
290
     1
  9
$FINGERPRINTGUID
  2
{832185C6-CC4D-4CCE-91BF-9484529F8DDF}
  9
$VERSIONGUID
  2
{21EFDC6C-EC90-4A72-B1F2-2287217D98A4}
  9
$EXTNAMES
290
     1
  9
$PSVPSCALE
 40
0.0
  9
$OLESTARTUP
290
     0
  0
ENDSEC
  0
SECTION
  2
CLASSES
  0
CLASS
  1
ACDBDICTIONARYWDFLT
  2
AcDbDictionaryWithDefault
  3
ObjectDBX Classes
 90
        0
280
     0
281
     0
  0
CLASS
  1
ACDBPLACEHOLDER
  2
AcDbPlaceHolder
  3
ObjectDBX Classes
 90
        0
280
     0
281
     0
  0
CLASS
  1
LAYOUT
  2
AcDbLayout
  3
ObjectDBX Classes
 90
        0
280
     0
281
     0
  0
CLASS
  1
DICTIONARYVAR
  2
AcDbDictionaryVar
  3
ObjectDBX Classes
 90
        0
280
     0
281
     0
  0
CLASS
  1
TABLESTYLE
  2
AcDbTableStyle
  3
ObjectDBX Classes
 90
     2047
280
     0
281
     0
  0
CLASS
  1
SORTENTSTABLE
  2
AcDbSortentsTable
  3
ObjectDBX Classes
 90
        0
280
     0
281
     0
  0
ENDSEC
  0
SECTION
  2
TABLES
  0
TABLE
  2
VPORT
  5
45D5862FB9AF9E
330
0
100
AcDbSymbolTable
 70
     2
  0
VPORT
  5
45D5862FBB201A
330
45D5862FB9AF9E
100
AcDbSymbolTableRecord
100
AcDbViewportTableRecord
  2
*Active
 70
     0
 10
0.0
 20
0.0
 11
1.0
 21
1.0
 12
15014.54876856601
 22
-6903.867135618039
 13
0.0
 23
0.0
 14
1.0
 24
1.0
 15
0.0
 25
0.0
 16
0.0
 26
0.0
 36
1.0
 17
0.0
 27
0.0
 37
0.0
 40
1714.605165740289
 41
1.626684636118598
 42
50.0
 43
0.0
 44
0.0
 50
0.0
 51
0.0
 71
     0
 72
   100
 73
     1
 74
     1
 75
     0
 76
     0
 77
     0
 78
     0
281
     0
 65
     1
110
0.0
120
0.0
130
0.0
111
1.0
121
0.0
131
0.0
112
0.0
122
1.0
132
0.0
 79
     0
146
0.0
  0
ENDTAB
  0
TABLE
  2
LTYPE
  5
45D5862FB9AF9B
330
0
100
AcDbSymbolTable
 70
     8
  0
LTYPE
  5
45D5862FB9AFA8
330
45D5862FB9AF9B
100
AcDbSymbolTableRecord
100
AcDbLinetypeTableRecord
  2
BYBLOCK
 70
     0
  3

 72
    65
 73
     0
 40
0.0
  0
LTYPE
  5
45D5862FB9AFA9
330
45D5862FB9AF9B
100
AcDbSymbolTableRecord
100
AcDbLinetypeTableRecord
  2
BYLAYER
 70
     0
  3

 72
    65
 73
     0
 40
0.0
  0
LTYPE
  5
45D5862FB9AFAA
330
45D5862FB9AF9B
100
AcDbSymbolTableRecord
100
AcDbLinetypeTableRecord
  2
CONTINUOUS
 70
     0
  3
Solid line
 72
    65
 73
     0
 40
0.0
  0
LTYPE
  5
45D5862FB9AFD4
330
45D5862FB9AF9B
100
AcDbSymbolTableRecord
100
AcDbLinetypeTableRecord
  2
HIDDEN
 70
     0
  3
_ _ _ _ _ _ _ _ _ _ _ _ _ _ _ _ _ _ _ _ _ _ _
 72
    65
 73
     2
 40
0.375
 49
0.25
 74
     0
 49
-0.125
 74
     0
  0
LTYPE
  5
45D5862FB9AFD6
330
45D5862FB9AF9B
100
AcDbSymbolTableRecord
100
AcDbLinetypeTableRecord
  2
CENTER
 70
     0
  3
____ _ ____ _ ____ _ ____ _ ____ _ ____ _ ____
 72
    65
 73
     4
 40
2.0
 49
1.25
 74
     0
 49
-0.25
 74
     0
 49
0.25
 74
     0
 49
-0.25
 74
     0
  0
LTYPE
  5
45D5862FB9AFD8
330
45D5862FB9AF9B
100
AcDbSymbolTableRecord
100
AcDbLinetypeTableRecord
  2
DASHED
 70
     0
  3
__ __ __ __ __ __ __ __ __ __ __ __ __ __ __
 72
    65
 73
     2
 40
0.75
 49
0.5
 74
     0
 49
-0.25
 74
     0
  0
LTYPE
  5
45D5862FB9AFDC
330
45D5862FB9AF9B
100
AcDbSymbolTableRecord
100
AcDbLinetypeTableRecord
  2
CENTER2
 70
     0
  3
___ _ ___ _ ___ _ ___ _ ___ _ ___ _ ___ _ ___ _
 72
    65
 73
     4
 40
1.125
 49
0.75
 74
     0
 49
-0.125
 74
     0
 49
0.125
 74
     0
 49
-0.125
 74
     0
  0
LTYPE
  5
45D5862FB9AFE0
330
45D5862FB9AF9B
100
AcDbSymbolTableRecord
100
AcDbLinetypeTableRecord
  2
DASHED2
 70
     0
  3
_ _ _ _ _ _ _ _ _ _ _ _ _ _ _ _ _ _ _ _ _ _ _ _
 72
    65
 73
     2
 40
0.375
 49
0.25
 74
     0
 49
-0.125
 74
     0
  0
LTYPE
  5
45D5862FB9AFEA
330
45D5862FB9AF9B
100
AcDbSymbolTableRecord
100
AcDbLinetypeTableRecord
  2
PHANTOM2
 70
     0
  3
___ _ _ ___ _ _ ___ _ _ ___ _ _ ___ _ _ ___ _ _
 72
    65
 73
     6
 40
1.25
 49
0.625
 74
     0
 49
-0.125
 74
     0
 49
0.125
 74
     0
 49
-0.125
 74
     0
 49
0.125
 74
     0
 49
-0.125
 74
     0
  0
LTYPE
  5
45D5862FBB18F8
330
45D5862FB9AF9B
100
AcDbSymbolTableRecord
100
AcDbLinetypeTableRecord
  2
HIDDEN2
 70
     0
  3
_ _ _ _ _ _ _ _ _ _ _ _ _ _ _ _ _ _ _ _ _ _ _ _
 72
    65
 73
     2
 40
0.1875
 49
0.125
 74
     0
 49
-0.0625
 74
     0
  0
ENDTAB
  0
TABLE
  2
LAYER
  5
45D5862FB9AF98
330
0
100
AcDbSymbolTable
 70
    24
  0
LAYER
  5
45D5862FB9AFA5
330
45D5862FB9AF98
100
AcDbSymbolTableRecord
100
AcDbLayerTableRecord
  2
0
 70
     0
 62
     7
  6
CONTINUOUS
370
    -3
390
45D5862FBAC35F
  0
LAYER
  5
45D5862FB9AFF6
330
45D5862FB9AF98
100
AcDbSymbolTableRecord
100
AcDbLayerTableRecord
  2
ZUWAKU
 70
     0
 62
    40
  6
CONTINUOUS
370
    -3
390
45D5862FBAC35F
  0
LAYER
  5
45D5862FB9E1F1
330
45D5862FB9AF98
100
AcDbSymbolTableRecord
100
AcDbLayerTableRecord
  2
TXT1
 70
     0
 62
     7
  6
CONTINUOUS
370
    -3
390
45D5862FBAC35F
  0
LAYER
  5
45D5862FB9E1F2
330
45D5862FB9AF98
100
AcDbSymbolTableRecord
100
AcDbLayerTableRecord
  2
SCALE
 70
     0
 62
     4
  6
CONTINUOUS
370
    -3
390
45D5862FBAC35F
  0
LAYER
  5
45D5862FB9E1F3
330
45D5862FB9AF98
100
AcDbSymbolTableRecord
100
AcDbLayerTableRecord
  2
DEFPOINTS
 70
     0
 62
     7
  6
CONTINUOUS
290
     0
370
    -3
390
45D5862FBAC35F
  0
LAYER
  5
45D5862FB9E1F4
330
45D5862FB9AF98
100
AcDbSymbolTableRecord
100
AcDbLayerTableRecord
  2
CENTER
 70
     0
 62
     1
  6
CENTER
370
    -3
390
45D5862FBAC35F
  0
LAYER
  5
45D5862FB9E1F5
330
45D5862FB9AF98
100
AcDbSymbolTableRecord
100
AcDbLayerTableRecord
  2
TOI
 70
     0
 62
    30
  6
CONTINUOUS
370
    -3
390
45D5862FBAC35F
  0
LAYER
  5
45D5862FB9E1F6
330
45D5862FB9AF98
100
AcDbSymbolTableRecord
100
AcDbLayerTableRecord
  2
SETSUBAN
 70
     0
 62
   120
  6
CONTINUOUS
370
    -3
390
45D5862FBAC35F
  0
LAYER
  5
45D5862FB9E1F7
330
45D5862FB9AF98
100
AcDbSymbolTableRecord
100
AcDbLayerTableRecord
  2
PIECE
 70
     0
 62
     4
  6
CONTINUOUS
370
    -3
390
45D5862FBAC35F
  0
LAYER
  5
45D5862FB9E1F8
330
45D5862FB9AF98
100
AcDbSymbolTableRecord
100
AcDbLayerTableRecord
  2
DOUBUCHI
 70
     0
 62
   171
  6
CONTINUOUS
370
    -3
390
45D5862FBAC35F
  0
LAYER
  5
45D5862FB9E1F9
330
45D5862FB9AF98
100
AcDbSymbolTableRecord
100
AcDbLayerTableRecord
  2
URABARI
 70
     0
 62
    91
  6
CONTINUOUS
370
    -3
390
45D5862FBAC35F
  0
LAYER
  5
45D5862FB9E1FA
330
45D5862FB9AF98
100
AcDbSymbolTableRecord
100
AcDbLayerTableRecord
  2
URAUCHI
 70
     0
 62
    51
  6
CONTINUOUS
370
    -3
390
45D5862FBAC35F
  0
LAYER
  5
45D5862FB9E1FB
330
45D5862FB9AF98
100
AcDbSymbolTableRecord
100
AcDbLayerTableRecord
  2
BISU
 70
     0
 62
   221
  6
PHANTOM2
370
    -3
390
45D5862FBAC35F
  0
LAYER
  5
45D5862FB9E1FD
330
45D5862FB9AF98
100
AcDbSymbolTableRecord
100
AcDbLayerTableRecord
  2
KANAMONO
 70
     0
 62
    51
  6
CONTINUOUS
370
    -3
390
45D5862FBAC35F
  0
LAYER
  5
45D5862FB9E1FE
330
45D5862FB9AF98
100
AcDbSymbolTableRecord
100
AcDbLayerTableRecord
  2
ANCHOR
 70
     0
 62
   221
  6
PHANTOM2
370
    -3
390
45D5862FBAC35F
  0
LAYER
  5
45D5862FB9E203
330
45D5862FB9AF98
100
AcDbSymbolTableRecord
100
AcDbLayerTableRecord
  2
MENDO
 70
     0
 62
    30
  6
CONTINUOUS
370
    -3
390
45D5862FBAC35F
  0
LAYER
  5
45D5862FB9E204
330
45D5862FB9AF98
100
AcDbSymbolTableRecord
100
AcDbLayerTableRecord
  2
KAKUNAMI
 70
     0
 62
    42
  6
CONTINUOUS
370
    -3
390
45D5862FBAC35F
  0
LAYER
  5
45D5862FB9E205
330
45D5862FB9AF98
100
AcDbSymbolTableRecord
100
AcDbLayerTableRecord
  2
ALC
 70
     0
 62
   254
  6
CONTINUOUS
370
    -3
390
45D5862FBAC35F
  0
LAYER
  5
45D5862FB9E206
330
45D5862FB9AF98
100
AcDbSymbolTableRecord
100
AcDbLayerTableRecord
  2
TOURISHIN
 70
     0
 62
     2
  6
CENTER
370
    -3
390
45D5862FBAC35F
  0
LAYER
  5
45D5862FB9E207
330
45D5862FB9AF98
100
AcDbSymbolTableRecord
100
AcDbLayerTableRecord
  2
YAKUMONO
 70
     0
 62
     3
  6
CONTINUOUS
370
    -3
390
45D5862FBAC35F
  0
LAYER
  5
45D5862FB9E208
330
45D5862FB9AF98
100
AcDbSymbolTableRecord
100
AcDbLayerTableRecord
  2
TEKKOTSU
 70
     0
 62
   254
  6
CONTINUOUS
370
    -3
390
45D5862FBAC35F
  0
LAYER
  5
45D5862FB9E209
330
45D5862FB9AF98
100
AcDbSymbolTableRecord
100
AcDbLayerTableRecord
  2
SEAL
 70
     0
 62
     2
  6
CONTINUOUS
370
    -3
390
45D5862FBAC35F
  0
LAYER
  5
45D5862FBA7A69
330
45D5862FB9AF98
100
AcDbSymbolTableRecord
100
AcDbLayerTableRecord
  2
1
 70
     0
 62
     4
  6
CONTINUOUS
370
    -3
390
45D5862FBAC35F
  0
LAYER
  5
45D5862FBB18F9
330
45D5862FB9AF98
100
AcDbSymbolTableRecord
100
AcDbLayerTableRecord
  2
TABUZAI
 70
     0
 62
     3
  6
CONTINUOUS
370
    -3
390
45D5862FBAC35F
  0
ENDTAB
  0
TABLE
  2
STYLE
  5
45D5862FB9AF99
330
0
100
AcDbSymbolTable
 70
     2
  0
STYLE
  5
45D5862FB9AFA6
330
45D5862FB9AF99
100
AcDbSymbolTableRecord
100
AcDbTextStyleTableRecord
  2
STANDARD
 70
     0
 40
0.0
 41
1.0
 50
0.0
 71
     0
 42
30.0
  3
txt
  4
bigfont
  0
ENDTAB
  0
TABLE
  2
VIEW
  5
45D5862FB9AF9C
330
0
100
AcDbSymbolTable
 70
     1
  0
VIEW
  5
45D5862FB9AFEC
330
45D5862FB9AF9C
100
AcDbSymbolTableRecord
100
AcDbViewTableRecord
  2
ZOOM_ALL
 70
     0
 40
5940.0
 10
4762.322274881515
 20
2970.0
 41
9524.644549763031
 11
0.0
 21
0.0
 31
1.0
 12
0.0
 22
0.0
 32
0.0
 42
50.0
 43
0.0
 44
0.0
 50
0.0
 71
     0
281
     0
 72
     0
  0
ENDTAB
  0
TABLE
  2
UCS
  5
45D5862FB9AF9D
330
0
100
AcDbSymbolTable
 70
     0
  0
ENDTAB
  0
TABLE
  2
APPID
  5
45D5862FB9AF9F
330
0
100
AcDbSymbolTable
 70
     1
  0
APPID
  5
45D5862FB9AFA7
330
45D5862FB9AF9F
100
AcDbSymbolTableRecord
100
AcDbRegAppTableRecord
  2
ACAD
 70
     0
  0
ENDTAB
  0
TABLE
  2
DIMSTYLE
  5
45D5862FB9AFA0
330
0
100
AcDbSymbolTable
 70
     2
100
AcDbDimStyleTable
 71
     1
340
45D5862FB9AFEF
  0
DIMSTYLE
105
45D5862FB9AFEF
102
{ACAD_REACTORS
330
45D5862FBB0378
330
45D5862FBB0141
330
45D5862FBB160F
330
45D5862FBB1629
330
45D5862FBB1D65
330
45D5862FBB1EB5
330
45D5862FBB1FB6
330
45D5862FBB1FC3
330
45D5862FBB1FD4
102
}
330
45D5862FB9AFA0
100
AcDbSymbolTableRecord
100
AcDbDimStyleTableRecord
  2
STANDARD
 70
     0
 40
10.0
 41
0.5
 42
1.0
 43
10.0
 44
0.5
 73
     0
 74
     0
 78
     8
140
2.399999999999999
141
0.1
145
1.0
147
0.5
172
     1
173
     1
176
   256
177
   256
178
   256
271
     1
272
     1
279
     2
284
     8
285
     8
286
     8
340
45D5862FB9AFA6
341
45D5862FBA4AED
342
45D5862FBA79C1
343
45D5862FBA4AED
344
45D5862FBA4AED
  0
ENDTAB
  0
TABLE
  2
BLOCK_RECORD
  5
45D5862FB9AF97
330
0
100
AcDbSymbolTable
 70
    35
  0
BLOCK_RECORD
  5
45D5862FB9AFAE
102
{ACAD_XDICTIONARY
360
45D5862FBAC3C5
102
}
330
45D5862FB9AF97
100
AcDbSymbolTableRecord
100
AcDbBlockTableRecord
  2
*MODEL_SPACE
340
45D5862FBAC362
  0
BLOCK_RECORD
  5
45D5862FB9AFAB
102
{ACAD_XDICTIONARY
360
45D5862FBAC3C3
102
}
330
45D5862FB9AF97
100
AcDbSymbolTableRecord
100
AcDbBlockTableRecord
  2
*PAPER_SPACE
340
45D5862FBAC363
  0
BLOCK_RECORD
  5
45D5862FB9AFB4
330
45D5862FB9AF97
100
AcDbSymbolTableRecord
100
AcDbBlockTableRecord
  2
INSLYTXT
340
0
102
{BLKREFS
331
45D5862FB9AD75
331
45D5862FBA2612
331
45D5862FBA2613
331
45D5862FBA2615
331
45D5862FBA2616
331
45D5862FBA2618
331
45D5862FBA261A
331
45D5862FBA261C
331
45D5862FBA261E
331
45D5862FBA2620
331
45D5862FBA2622
331
45D5862FBA2624
331
45D5862FBA2626
331
45D5862FBA2628
331
45D5862FBA262A
331
45D5862FBA262C
331
45D5862FBA262E
331
45D5862FBA3942
331
45D5862FBA3943
331
45D5862FBA3945
331
45D5862FBA3946
331
45D5862FBA3948
331
45D5862FBA394A
331
45D5862FBA394C
331
45D5862FBA394E
331
45D5862FBA3950
331
45D5862FBA3952
331
45D5862FBA3954
331
45D5862FBA3956
331
45D5862FBA3958
331
45D5862FBA395A
331
45D5862FBA395C
331
45D5862FBA395E
331
45D5862FBA8D56
331
45D5862FBA8D57
331
45D5862FBA8D59
331
45D5862FBA8D5A
331
45D5862FBA8D5C
331
45D5862FBA8D5E
331
45D5862FBA8D60
331
45D5862FBA8D62
331
45D5862FBA8D64
331
45D5862FBA8D66
331
45D5862FBA8D68
331
45D5862FBA8D6A
331
45D5862FBA8D6C
331
45D5862FBA8D6E
331
45D5862FBA8D70
331
45D5862FBA8D72
331
45D5862FBAB71C
331
45D5862FBAB71D
331
45D5862FBAB71F
331
45D5862FBAB720
331
45D5862FBAB722
331
45D5862FBAB724
331
45D5862FBAB726
331
45D5862FBAB728
331
45D5862FBAB72A
331
45D5862FBAB72C
331
45D5862FBAB72E
331
45D5862FBAB730
331
45D5862FBAB732
331
45D5862FBAB734
331
45D5862FBAB736
331
45D5862FBAB738
102
}
  0
BLOCK_RECORD
  5
45D5862FB9AFC1
330
45D5862FB9AF97
100
AcDbSymbolTableRecord
100
AcDbBlockTableRecord
  2
SAKUJO1
340
0
102
{BLKREFS
331
45D5862FB9AC56
331
45D5862FBA2611
331
45D5862FBA2614
331
45D5862FBA2617
331
45D5862FBA2619
331
45D5862FBA261B
331
45D5862FBA261D
331
45D5862FBA261F
331
45D5862FBA2621
331
45D5862FBA2623
331
45D5862FBA2625
331
45D5862FBA2627
331
45D5862FBA2629
331
45D5862FBA262B
331
45D5862FBA262D
331
45D5862FBA3941
331
45D5862FBA3944
331
45D5862FBA3947
331
45D5862FBA3949
331
45D5862FBA394B
331
45D5862FBA394D
331
45D5862FBA394F
331
45D5862FBA3951
331
45D5862FBA3953
331
45D5862FBA3955
331
45D5862FBA3957
331
45D5862FBA3959
331
45D5862FBA395B
331
45D5862FBA395D
331
45D5862FBA8D55
331
45D5862FBA8D58
331
45D5862FBA8D5B
331
45D5862FBA8D5D
331
45D5862FBA8D5F
331
45D5862FBA8D61
331
45D5862FBA8D63
331
45D5862FBA8D65
331
45D5862FBA8D67
331
45D5862FBA8D69
331
45D5862FBA8D6B
331
45D5862FBA8D6D
331
45D5862FBA8D6F
331
45D5862FBA8D71
331
45D5862FBAB71B
331
45D5862FBAB71E
331
45D5862FBAB721
331
45D5862FBAB723
331
45D5862FBAB725
331
45D5862FBAB727
331
45D5862FBAB729
331
45D5862FBAB72B
331
45D5862FBAB72D
331
45D5862FBAB72F
331
45D5862FBAB731
331
45D5862FBAB733
331
45D5862FBAB735
331
45D5862FBAB737
102
}
  0
BLOCK_RECORD
  5
45D5862FB9B039
330
45D5862FB9AF97
100
AcDbSymbolTableRecord
100
AcDbBlockTableRecord
  2
DOT
340
0
102
{BLKREFS
331
45D5862FBB01D1
331
45D5862FBB01F7
331
45D5862FBB0604
331
45D5862FBB0613
331
45D5862FBB0623
331
45D5862FBB0347
331
45D5862FBB0346
331
45D5862FBB0330
331
45D5862FBB0354
331
45D5862FBB0371
331
45D5862FBB1DBD
331
45D5862FBB1DBE
331
45D5862FBB1DD5
331
45D5862FBB1DD6
331
45D5862FBB1DF0
331
45D5862FBB1DEE
331
45D5862FBB1ECF
331
45D5862FBB1ED0
331
45D5862FBB1F97
331
45D5862FBB1F98
331
45D5862FBB1FBB
331
45D5862FBB1FBC
331
45D5862FBB1FCB
331
45D5862FBB1FCC
331
45D5862FBB1FD9
331
45D5862FBB1FDA
331
45D5862FBB1FFA
102
}
  0
BLOCK_RECORD
  5
45D5862FB9B16D
330
45D5862FB9AF97
100
AcDbSymbolTableRecord
100
AcDbBlockTableRecord
  2
BS2M060
340
0
102
{BLKREFS
331
45D5862FB9B187
331
45D5862FB9B192
331
45D5862FB9B1E8
331
45D5862FB9B1F3
331
45D5862FB9B1FC
331
45D5862FB9B20E
102
}
  0
BLOCK_RECORD
  5
45D5862FB9B17F
330
45D5862FB9AF97
100
AcDbSymbolTableRecord
100
AcDbBlockTableRecord
  2
BISU5
340
0
  0
BLOCK_RECORD
  5
45D5862FB9B18B
330
45D5862FB9AF97
100
AcDbSymbolTableRecord
100
AcDbBlockTableRecord
  2
BISU55
340
0
  0
BLOCK_RECORD
  5
45D5862FB9B197
330
45D5862FB9AF97
100
AcDbSymbolTableRecord
100
AcDbBlockTableRecord
  2
ANCHOR40
340
0
  0
BLOCK_RECORD
  5
45D5862FB9B1D6
330
45D5862FB9AF97
100
AcDbSymbolTableRecord
100
AcDbBlockTableRecord
  2
BISU40
340
0
  0
BLOCK_RECORD
  5
45D5862FB9B1EB
330
45D5862FB9AF97
100
AcDbSymbolTableRecord
100
AcDbBlockTableRecord
  2
BISU6
340
0
  0
BLOCK_RECORD
  5
45D5862FB9B1F7
330
45D5862FB9AF97
100
AcDbSymbolTableRecord
100
AcDbBlockTableRecord
  2
BISU4
340
0
102
{BLKREFS
331
45D5862FBB01F2
331
45D5862FBB1DEF
102
}
  0
BLOCK_RECORD
  5
45D5862FB9B206
330
45D5862FB9AF97
100
AcDbSymbolTableRecord
100
AcDbBlockTableRecord
  2
00000005
340
0
102
{BLKREFS
331
45D5862FBB0614
331
45D5862FBB1C53
331
45D5862FBB1C57
331
45D5862FBB1C58
331
45D5862FBB1C59
331
45D5862FBB1DF1
331
45D5862FBB1DF4
331
45D5862FBB1DF5
331
45D5862FBB1DF6
102
}
  0
BLOCK_RECORD
  5
45D5862FB9B212
330
45D5862FB9AF97
100
AcDbSymbolTableRecord
100
AcDbBlockTableRecord
  2
00000002
340
0
102
{BLKREFS
331
45D5862FB9B27D
331
45D5862FBB05EA
102
}
  0
BLOCK_RECORD
  5
45D5862FB9B229
330
45D5862FB9AF97
100
AcDbSymbolTableRecord
100
AcDbBlockTableRecord
  2
00000004
340
0
102
{BLKREFS
331
45D5862FBB0364
102
}
  0
BLOCK_RECORD
  5
45D5862FB9B27C
330
45D5862FB9AF97
100
AcDbSymbolTableRecord
100
AcDbBlockTableRecord
  2
P2
340
0
  0
BLOCK_RECORD
  5
45D5862FBA4AED
330
45D5862FB9AF97
100
AcDbSymbolTableRecord
100
AcDbBlockTableRecord
  2
_DOT
340
0
102
{BLKREFS
331
45D5862FBB0816
331
45D5862FBB0817
331
45D5862FBB1EF3
331
45D5862FBB1EF4
102
}
  0
BLOCK_RECORD
  5
45D5862FBA787A
330
45D5862FB9AF97
100
AcDbSymbolTableRecord
100
AcDbBlockTableRecord
  2
NS3M080
340
0
  0
BLOCK_RECORD
  5
45D5862FBA79C1
330
45D5862FB9AF97
100
AcDbSymbolTableRecord
100
AcDbBlockTableRecord
  2
YAZ1
340
0
  0
BLOCK_RECORD
  5
45D5862FBA825A
330
45D5862FB9AF97
100
AcDbSymbolTableRecord
100
AcDbBlockTableRecord
  2
AN30×30
340
0
  0
BLOCK_RECORD
  5
45D5862FBAAD4B
330
45D5862FB9AF97
100
AcDbSymbolTableRecord
100
AcDbBlockTableRecord
  2
金具
340
0
  0
BLOCK_RECORD
  5
45D5862FBAB581
330
45D5862FB9AF97
100
AcDbSymbolTableRecord
100
AcDbBlockTableRecord
  2
*X19
340
0
102
{BLKREFS
331
45D5862FBB032F
102
}
  0
BLOCK_RECORD
  5
45D5862FBAB591
330
45D5862FB9AF97
100
AcDbSymbolTableRecord
100
AcDbBlockTableRecord
  2
*X20
340
0
102
{BLKREFS
331
45D5862FBB0612
102
}
  0
BLOCK_RECORD
  5
45D5862FBAB5C9
330
45D5862FB9AF97
100
AcDbSymbolTableRecord
100
AcDbBlockTableRecord
  2
*X21
340
0
102
{BLKREFS
331
45D5862FBB035F
102
}
  0
BLOCK_RECORD
  5
45D5862FBB0626
330
45D5862FB9AF97
100
AcDbSymbolTableRecord
100
AcDbBlockTableRecord
  2
*D22
340
0
  0
BLOCK_RECORD
  5
45D5862FBB064A
330
45D5862FB9AF97
100
AcDbSymbolTableRecord
100
AcDbBlockTableRecord
  2
*D23
340
0
  0
BLOCK_RECORD
  5
45D5862FBB1610
330
45D5862FB9AF97
100
AcDbSymbolTableRecord
100
AcDbBlockTableRecord
  2
*D24
340
0
  0
BLOCK_RECORD
  5
45D5862FBB162A
330
45D5862FB9AF97
100
AcDbSymbolTableRecord
100
AcDbBlockTableRecord
  2
*D25
340
0
  0
BLOCK_RECORD
  5
45D5862FBB183F
330
45D5862FB9AF97
100
AcDbSymbolTableRecord
100
AcDbBlockTableRecord
  2
DOT1
340
0
  0
BLOCK_RECORD
  5
45D5862FBB1844
330
45D5862FB9AF97
100
AcDbSymbolTableRecord
100
AcDbBlockTableRecord
  2
*X27
340
0
102
{BLKREFS
331
45D5862FBB1C54
331
45D5862FBB1DF2
102
}
  0
BLOCK_RECORD
  5
45D5862FBB1857
330
45D5862FB9AF97
100
AcDbSymbolTableRecord
100
AcDbBlockTableRecord
  2
*X28
340
0
102
{BLKREFS
331
45D5862FBB1C55
331
45D5862FBB1DF3
102
}
  0
BLOCK_RECORD
  5
45D5862FBB1D66
330
45D5862FB9AF97
100
AcDbSymbolTableRecord
100
AcDbBlockTableRecord
  2
*D29
340
0
  0
BLOCK_RECORD
  5
45D5862FBB1EC0
330
45D5862FB9AF97
100
AcDbSymbolTableRecord
100
AcDbBlockTableRecord
  2
*D30
340
0
  0
BLOCK_RECORD
  5
45D5862FBB1FB7
330
45D5862FB9AF97
100
AcDbSymbolTableRecord
100
AcDbBlockTableRecord
  2
*D31
340
0
  0
BLOCK_RECORD
  5
45D5862FBB1FC4
330
45D5862FB9AF97
100
AcDbSymbolTableRecord
100
AcDbBlockTableRecord
  2
*D32
340
0
  0
BLOCK_RECORD
  5
45D5862FBB1FD5
330
45D5862FB9AF97
100
AcDbSymbolTableRecord
100
AcDbBlockTableRecord
  2
*D33
340
0
  0
ENDTAB
  0
ENDSEC
  0
SECTION
  2
BLOCKS
  0
BLOCK
  5
45D5862FB9B01E
330
45D5862FB9AFAE
100
AcDbEntity
  8
0
100
AcDbBlockBegin
  2
*MODEL_SPACE
 70
     0
 10
0.0
 20
0.0
 30
0.0
  3
*MODEL_SPACE
  1

  0
ENDBLK
  5
45D5862FB9B01F
330
45D5862FB9AFAE
100
AcDbEntity
  8
0
100
AcDbBlockEnd
  0
BLOCK
  5
45D5862FB9B01C
330
45D5862FB9AFAB
100
AcDbEntity
 67
     1
  8
0
100
AcDbBlockBegin
  2
*PAPER_SPACE
 70
     0
 10
0.0
 20
0.0
 30
0.0
  3
*PAPER_SPACE
  1

  0
ENDBLK
  5
45D5862FB9B01D
330
45D5862FB9AFAB
100
AcDbEntity
 67
     1
  8
0
100
AcDbBlockEnd
  0
BLOCK
  5
22EAC317DBE46C
330
45D5862FB9AFB4
100
AcDbEntity
  8
0
100
AcDbBlockBegin
  2
INSLYTXT
 70
     0
 10
0.0
 20
0.0
 30
0.0
  3
INSLYTXT
  1

  0
ENDBLK
  5
22EAC317DBE46D
330
45D5862FB9AFB4
100
AcDbEntity
  8
0
100
AcDbBlockEnd
  0
BLOCK
  5
22EAC317DBE46E
330
45D5862FB9AFC1
100
AcDbEntity
  8
0
100
AcDbBlockBegin
  2
SAKUJO1
 70
     0
 10
0.0
 20
0.0
 30
0.0
  3
SAKUJO1
  1

  0
ENDBLK
  5
22EAC317DBE46F
330
45D5862FB9AFC1
100
AcDbEntity
  8
0
100
AcDbBlockEnd
  0
BLOCK
  5
45D5862FB9B03F
330
45D5862FB9B039
100
AcDbEntity
  8
0
100
AcDbBlockBegin
  2
DOT
 70
     0
 10
0.0
 20
0.0
 30
0.0
  3
DOT
  1

  0
LWPOLYLINE
  5
45D5862FB9B03A
330
45D5862FB9B039
100
AcDbEntity
  8
0
  6
ByBlock
 62
     0
100
AcDbPolyline
 90
        2
 70
     1
 43
0.5
 10
-0.25
 20
0.0
 42
1.0
 10
0.25
 20
0.0
 42
1.0
  0
LINE
  5
45D5862FB9B03E
330
45D5862FB9B039
100
AcDbEntity
  8
0
  6
ByBlock
 62
     0
100
AcDbLine
 10
-0.5
 20
0.0
 30
0.0
 11
-1.0
 21
0.0
 31
0.0
  0
ENDBLK
  5
45D5862FB9B040
330
45D5862FB9B039
100
AcDbEntity
  8
0
100
AcDbBlockEnd
  0
BLOCK
  5
45D5862FB9B17D
330
45D5862FB9B16D
100
AcDbEntity
  8
0
100
AcDbBlockBegin
  2
BS2M060
 70
     0
 10
0.0
 20
0.0
 30
0.0
  3
BS2M060
  1

  0
LINE
  5
45D5862FB9B16E
330
45D5862FB9B16D
100
AcDbEntity
  8
0
100
AcDbLine
 10
0.0
 20
6.099999999999997
 30
0.0
 11
-1.499999999999999
 21
6.099999999999997
 31
0.0
  0
LINE
  5
45D5862FB9B16F
330
45D5862FB9B16D
100
AcDbEntity
  8
0
100
AcDbLine
 10
-1.499999999999999
 20
6.099999999999997
 30
0.0
 11
-1.499999999999999
 21
-6.099999999999997
 31
0.0
  0
LINE
  5
45D5862FB9B170
330
45D5862FB9B16D
100
AcDbEntity
  8
0
100
AcDbLine
 10
-1.499999999999999
 20
-6.099999999999997
 30
0.0
 11
0.0
 21
-6.099999999999997
 31
0.0
  0
LINE
  5
45D5862FB9B171
330
45D5862FB9B16D
100
AcDbEntity
  8
0
100
AcDbLine
 10
0.0
 20
-6.099999999999997
 30
0.0
 11
0.0
 21
6.099999999999997
 31
0.0
  0
LINE
  5
45D5862FB9B172
330
45D5862FB9B16D
100
AcDbEntity
  8
0
100
AcDbLine
 10
0.0
 20
0.75
 30
0.0
 11
-1.499999999999999
 21
0.3480762113533159
 31
0.0
  0
LINE
  5
45D5862FB9B173
330
45D5862FB9B16D
100
AcDbEntity
  8
0
100
AcDbLine
 10
-1.499999999999999
 20
-0.75
 30
0.0
 11
0.0
 21
-0.3480762113533159
 31
0.0
  0
LINE
  5
45D5862FB9B174
330
45D5862FB9B16D
100
AcDbEntity
  8
0
100
AcDbLine
 10
-3.999999999999998
 20
-5.773502691896257
 30
0.0
 11
-1.499999999999999
 21
-5.773502691896257
 31
0.0
  0
LINE
  5
45D5862FB9B175
330
45D5862FB9B16D
100
AcDbEntity
  8
0
100
AcDbLine
 10
-1.499999999999999
 20
-5.773502691896257
 30
0.0
 11
-1.499999999999999
 21
5.773502691896257
 31
0.0
  0
LINE
  5
45D5862FB9B176
330
45D5862FB9B16D
100
AcDbEntity
  8
0
100
AcDbLine
 10
-1.499999999999999
 20
5.773502691896257
 30
0.0
 11
-3.999999999999998
 21
5.773502691896257
 31
0.0
  0
LINE
  5
45D5862FB9B177
330
45D5862FB9B16D
100
AcDbEntity
  8
0
100
AcDbLine
 10
-5.5
 20
4.33012701892219
 30
0.0
 11
-5.5
 21
-4.33012701892219
 31
0.0
  0
LINE
  5
45D5862FB9B178
330
45D5862FB9B16D
100
AcDbEntity
  8
0
100
AcDbLine
 10
-1.499999999999999
 20
-2.886751345948128
 30
0.0
 11
-3.999999999999998
 21
-2.886751345948128
 31
0.0
  0
LINE
  5
45D5862FB9B179
330
45D5862FB9B16D
100
AcDbEntity
  8
0
100
AcDbLine
 10
-1.499999999999999
 20
2.886751345948128
 30
0.0
 11
-3.999999999999998
 21
2.886751345948128
 31
0.0
  0
ARC
  5
45D5862FB9B17A
330
45D5862FB9B16D
100
AcDbEntity
  8
0
100
AcDbCircle
 10
-4.055555555555555
 20
4.33012701892219
 30
0.0
 40
1.444444444444445
100
AcDbArc
 50
87.79577249602795
 51
272.2042275039721
  0
ARC
  5
45D5862FB9B17B
330
45D5862FB9B16D
100
AcDbEntity
  8
0
100
AcDbCircle
 10
-1.972222222222224
 20
0.0
 30
0.0
 40
3.527777777777775
100
AcDbArc
 50
125.0858478081234
 51
234.9141521918765
  0
ARC
  5
45D5862FB9B17C
330
45D5862FB9B16D
100
AcDbEntity
  8
0
100
AcDbCircle
 10
-4.055555555555555
 20
-4.33012701892219
 30
0.0
 40
1.444444444444444
100
AcDbArc
 50
87.79577249602795
 51
272.2042275039721
  0
ENDBLK
  5
45D5862FB9B17E
330
45D5862FB9B16D
100
AcDbEntity
  8
0
100
AcDbBlockEnd
  0
BLOCK
  5
45D5862FB9B189
330
45D5862FB9B17F
100
AcDbEntity
  8
0
100
AcDbBlockBegin
  2
BISU5
 70
     0
 10
0.0
 20
0.0
 30
0.0
  3
BISU5
  1

  0
LINE
  5
45D5862FB9B180
330
45D5862FB9B17F
100
AcDbEntity
  8
CENTER
100
AcDbLine
 10
0.0
 20
-34.61411962727221
 30
0.0
 11
0.0
 21
14.55136414782418
 31
0.0
  0
LINE
  5
45D5862FB9B181
330
45D5862FB9B17F
100
AcDbEntity
  8
BISU
100
AcDbLine
 10
2.950077202110605
 20
-26.57248094118006
 30
0.0
 11
2.950077202110605
 21
0.0
 31
0.0
  0
LINE
  5
45D5862FB9B182
330
45D5862FB9B17F
100
AcDbEntity
  8
BISU
100
AcDbLine
 10
-3.0
 20
-26.57248094118006
 30
0.0
 11
-3.0
 21
0.0
 31
0.0
  0
LINE
  5
45D5862FB9B183
330
45D5862FB9B17F
100
AcDbEntity
  8
BISU
100
AcDbLine
 10
0.0
 20
-30.0
 30
0.0
 11
2.979176445010807
 21
-26.55436586270866
 31
0.0
  0
LINE
  5
45D5862FB9B184
330
45D5862FB9B17F
100
AcDbEntity
  8
BISU
100
AcDbLine
 10
0.0
 20
-24.28044362708033
 30
0.0
 11
-3.0
 21
-23.13442745672091
 31
0.0
  0
LINE
  5
45D5862FB9B185
330
45D5862FB9B17F
100
AcDbEntity
  8
BISU
100
AcDbLine
 10
0.0
 20
-30.0
 30
0.0
 11
-3.0
 21
-26.57248094118006
 31
0.0
  0
LINE
  5
45D5862FB9B186
330
45D5862FB9B17F
100
AcDbEntity
  8
BISU
100
AcDbLine
 10
0.0
 20
-30.0
 30
0.0
 11
0.0
 21
-24.28044362708033
 31
0.0
  0
INSERT
  5
45D5862FB9B187
330
45D5862FB9B17F
100
AcDbEntity
  8
BISU
100
AcDbBlockReference
  2
BS2M060
 10
0.0
 20
0.0
 30
0.0
 50
270.0
  0
LINE
  5
45D5862FB9B188
330
45D5862FB9B17F
100
AcDbEntity
  8
BISU
100
AcDbLine
 10
-3.0
 20
0.0
 30
0.0
 11
0.0
 21
0.0
 31
0.0
  0
ENDBLK
  5
45D5862FB9B18A
330
45D5862FB9B17F
100
AcDbEntity
  8
0
100
AcDbBlockEnd
  0
BLOCK
  5
45D5862FB9B195
330
45D5862FB9B18B
100
AcDbEntity
  8
0
100
AcDbBlockBegin
  2
BISU55
 70
     0
 10
0.0
 20
0.0
 30
0.0
  3
BISU55
  1

  0
LINE
  5
45D5862FB9B18C
330
45D5862FB9B18B
100
AcDbEntity
  8
ANCHOR
100
AcDbLine
 10
55.0
 20
0.0
 30
0.0
 11
51.57248094118017
 21
-3.0
 31
0.0
  0
LINE
  5
45D5862FB9B18D
330
45D5862FB9B18B
100
AcDbEntity
  8
ANCHOR
100
AcDbLine
 10
55.0
 20
0.0
 30
0.0
 11
51.55436586270866
 21
2.979176445010807
 31
0.0
  0
LINE
  5
45D5862FB9B18E
330
45D5862FB9B18B
100
AcDbEntity
  8
ANCHOR
100
AcDbLine
 10
55.0
 20
0.0
 30
0.0
 11
49.28044362708032
 21
0.0
 31
0.0
  0
LINE
  5
45D5862FB9B18F
330
45D5862FB9B18B
100
AcDbEntity
  8
BISU
100
AcDbLine
 10
69.6141196272722
 20
0.0
 30
0.0
 11
-28.29596134604276
 21
0.0
 31
0.0
  0
LINE
  5
45D5862FB9B190
330
45D5862FB9B18B
100
AcDbEntity
  8
ANCHOR
100
AcDbLine
 10
51.57248094118017
 20
-3.0
 30
0.0
 11
0.0
 21
-3.0
 31
0.0
  0
LINE
  5
45D5862FB9B191
330
45D5862FB9B18B
100
AcDbEntity
  8
ANCHOR
100
AcDbLine
 10
51.57248094118017
 20
2.950077202110605
 30
0.0
 11
0.0
 21
2.950077202110605
 31
0.0
  0
INSERT
  5
45D5862FB9B192
330
45D5862FB9B18B
100
AcDbEntity
  8
ANCHOR
100
AcDbBlockReference
  2
BS2M060
 10
0.0
 20
0.0
 30
0.0
  0
LINE
  5
45D5862FB9B193
330
45D5862FB9B18B
100
AcDbEntity
  8
ANCHOR
100
AcDbLine
 10
0.0
 20
-3.0
 30
0.0
 11
0.0
 21
0.0
 31
0.0
  0
LINE
  5
45D5862FB9B194
330
45D5862FB9B18B
100
AcDbEntity
  8
ANCHOR
100
AcDbLine
 10
49.28044362708032
 20
0.0
 30
0.0
 11
48.13442745672091
 21
-3.0
 31
0.0
  0
ENDBLK
  5
45D5862FB9B196
330
45D5862FB9B18B
100
AcDbEntity
  8
0
100
AcDbBlockEnd
  0
BLOCK
  5
45D5862FB9B1D4
330
45D5862FB9B197
100
AcDbEntity
  8
0
100
AcDbBlockBegin
  2
ANCHOR40
 70
     0
 10
0.0
 20
0.0
 30
0.0
  3
ANCHOR40
  1

  0
LINE
  5
45D5862FB9B198
330
45D5862FB9B197
100
AcDbEntity
  8
BISU
100
AcDbLine
 10
8.056726847717698
 20
-0.0000000000001137
 30
0.0
 11
-44.36631227950221
 21
-0.0000000000001137
 31
0.0
  0
LINE
  5
45D5862FB9B199
330
45D5862FB9B197
100
AcDbEntity
  8
ANCHOR
100
AcDbLine
 10
-0.3533381288533519
 20
3.999999999999886
 30
0.0
 11
-7.85323467838856
 21
3.999999999999886
 31
0.0
  0
LINE
  5
45D5862FB9B19A
330
45D5862FB9B197
100
AcDbEntity
  8
ANCHOR
100
AcDbLine
 10
-0.3533381288533519
 20
-4.000000000000113
 30
0.0
 11
-7.297860097385353
 21
-4.000000000000113
 31
0.0
  0
LINE
  5
45D5862FB9B19B
330
45D5862FB9B197
100
AcDbEntity
  8
ANCHOR
100
AcDbLine
 10
-21.00083790687969
 20
3.999999999999886
 30
0.0
 11
-28.45100555607393
 21
3.999999999999886
 31
0.0
  0
LINE
  5
45D5862FB9B19C
330
45D5862FB9B197
100
AcDbEntity
  8
ANCHOR
100
AcDbLine
 10
-19.2500927506845
 20
-4.000000000000113
 30
0.0
 11
-27.89563097507067
 21
-4.000000000000113
 31
0.0
  0
LINE
  5
45D5862FB9B19D
330
45D5862FB9B197
100
AcDbEntity
  8
ANCHOR
100
AcDbLine
 10
-37.50072204689422
 20
-1.533894019985837
 30
0.0
 11
-30.37492377513842
 21
-3.34721275347556
 31
0.0
  0
LINE
  5
45D5862FB9B19E
330
45D5862FB9B197
100
AcDbEntity
  8
ANCHOR
100
AcDbLine
 10
-37.71298091626835
 20
1.643083232326148
 30
0.0
 11
-31.94806928110233
 21
3.110093925906312
 31
0.0
  0
LINE
  5
45D5862FB9B19F
330
45D5862FB9B197
100
AcDbEntity
  8
ANCHOR
100
AcDbLine
 10
-29.58717376771329
 20
3.710876588981248
 30
0.0
 11
-28.45100555607393
 21
3.999999999999886
 31
0.0
  0
LINE
  5
45D5862FB9B1A0
330
45D5862FB9B197
100
AcDbEntity
  8
ANCHOR
100
AcDbLine
 10
-38.89153911857033
 20
1.343172740162458
 30
0.0
 11
-38.44885620723158
 21
1.761996838200956
 31
0.0
  0
ARC
  5
45D5862FB9B1A1
330
45D5862FB9B197
100
AcDbEntity
  8
ANCHOR
100
AcDbCircle
 10
-35.49701209833534
 20
-1.146102190163103
 30
0.0
 40
2.777587917799392
100
AcDbArc
 50
155.6301603426011
 51
190.1735302745156
  0
ARC
  5
45D5862FB9B1A2
330
45D5862FB9B197
100
AcDbEntity
  8
ANCHOR
100
AcDbCircle
 10
-39.91967731500939
 20
0.4784836094659113
 30
0.0
 40
1.952106795086448
100
AcDbArc
 50
345.8115833908174
 51
41.10960342915062
  0
ARC
  5
45D5862FB9B1A3
330
45D5862FB9B197
100
AcDbEntity
  8
ANCHOR
100
AcDbCircle
 10
-39.08749624392351
 20
0.2673199586299688
 30
0.0
 40
1.093553109139046
100
AcDbArc
 50
345.8506185327935
 51
79.67723876572802
  0
ARC
  5
45D5862FB9B1A4
330
45D5862FB9B197
100
AcDbEntity
  8
ANCHOR
100
AcDbCircle
 10
-38.12613064856021
 20
1.349760548666267
 30
0.0
 40
0.5235365742992052
100
AcDbArc
 50
42.92754872806553
 51
128.0561654852055
  0
ARC
  5
45D5862FB9B1A5
330
45D5862FB9B197
100
AcDbEntity
  8
ANCHOR
100
AcDbCircle
 10
-40.24019076712379
 20
0.4906054621092153
 30
0.0
 40
2.777587917799392
100
AcDbArc
 50
349.8264697254886
 51
25.9565697203773
  0
ARC
  5
45D5862FB9B1A6
330
45D5862FB9B197
100
AcDbEntity
  8
ANCHOR
100
AcDbCircle
 10
-31.58385942316977
 20
-0.7455208092759449
 30
0.0
 40
5.969153677649175
100
AcDbArc
 50
172.8252752806843
 51
188.8239615256986
  0
ARC
  5
45D5862FB9B1A7
330
45D5862FB9B197
100
AcDbEntity
  8
ANCHOR
100
AcDbCircle
 10
-37.85852027291127
 20
-1.56859775295743
 30
0.0
 40
0.3785856872094233
100
AcDbArc
 50
190.3642942631646
 51
349.635705736834
  0
ARC
  5
45D5862FB9B1A8
330
45D5862FB9B197
100
AcDbEntity
  8
ANCHOR
100
AcDbCircle
 10
-29.43313002674938
 20
-3.677132434562736
 30
0.0
 40
0.8874867422667101
100
AcDbArc
 50
190.3642942631646
 51
349.635705736834
  0
ARC
  5
45D5862FB9B1A9
330
45D5862FB9B197
100
AcDbEntity
  8
ANCHOR
100
AcDbCircle
 10
-14.72396773006403
 20
-1.747662039717623
 30
0.0
 40
13.9929874013852
100
AcDbArc
 50
172.8252752806843
 51
188.8239615256986
  0
ARC
  5
45D5862FB9B1AA
330
45D5862FB9B197
100
AcDbEntity
  8
ANCHOR
100
AcDbCircle
 10
-32.50863586398657
 20
0.9768472820891247
 30
0.0
 40
4.021686359744474
100
AcDbArc
 50
345.9425344962387
 51
32.0349085421964
  0
ARC
  5
45D5862FB9B1AB
330
45D5862FB9B197
100
AcDbEntity
  8
ANCHOR
100
AcDbCircle
 10
-30.7096060792789
 20
2.301044501661522
 30
0.0
 40
1.802076804268533
100
AcDbArc
 50
26.67658757755519
 51
96.39498099089957
  0
ARC
  5
45D5862FB9B1AC
330
45D5862FB9B197
100
AcDbEntity
  8
ANCHOR
100
AcDbCircle
 10
-32.35372678022883
 20
0.5562183549789097
 30
0.0
 40
2.585892193881456
100
AcDbArc
 50
347.5787659366381
 51
80.97454101284926
  0
ARC
  5
45D5862FB9B1AD
330
45D5862FB9B197
100
AcDbEntity
  8
ANCHOR
100
AcDbCircle
 10
-34.25955767308477
 20
1.017323914350072
 30
0.0
 40
4.546474407791096
100
AcDbArc
 50
347.06996550416
 51
42.55182514745697
  0
ARC
  5
45D5862FB9B1AE
330
45D5862FB9B197
100
AcDbEntity
  8
ANCHOR
100
AcDbCircle
 10
-23.8972440503436
 20
-2.686711445828904
 30
0.0
 40
6.511266896266857
100
AcDbArc
 50
155.6301603426011
 51
190.1735302745156
  0
LINE
  5
45D5862FB9B1AF
330
45D5862FB9B197
100
AcDbEntity
  8
ANCHOR
100
AcDbLine
 10
-31.94806928110205
 20
3.110093925906312
 30
0.0
 11
-30.91032478067717
 21
4.091908207082267
 31
0.0
  0
ARC
  5
45D5862FB9B1B0
330
45D5862FB9B197
100
AcDbEntity
  8
ANCHOR
100
AcDbCircle
 10
-39.35333812885341
 20
-0.0305841894216883
 30
0.0
 40
1.0
100
AcDbArc
 50
180.0
 51
255.7228372690604
  0
ARC
  5
45D5862FB9B1B1
330
45D5862FB9B197
100
AcDbEntity
  8
ANCHOR
100
AcDbCircle
 10
-39.35333812885341
 20
0.1937874180879362
 30
0.0
 40
1.0
100
AcDbArc
 50
104.2771627309395
 51
180.0
  0
LINE
  5
45D5862FB9B1B2
330
45D5862FB9B197
100
AcDbEntity
  8
ANCHOR
100
AcDbLine
 10
-39.59995088631001
 20
-0.9996982940862151
 30
0.0
 11
-38.26791710570631
 21
-1.338664079517457
 31
0.0
  0
LINE
  5
45D5862FB9B1B3
330
45D5862FB9B197
100
AcDbEntity
  8
ANCHOR
100
AcDbLine
 10
-39.59995088631001
 20
1.162901522752461
 30
0.0
 11
-38.8915391185705
 21
1.343172740162343
 31
0.0
  0
LINE
  5
45D5862FB9B1B4
330
45D5862FB9B197
100
AcDbEntity
  8
ANCHOR
100
AcDbLine
 10
-40.35333812885339
 20
-0.0305841894216883
 30
0.0
 11
-40.35333812885339
 21
0.1937874180879362
 31
0.0
  0
LINE
  5
45D5862FB9B1B5
330
45D5862FB9B197
100
AcDbEntity
  8
ANCHOR
100
AcDbLine
 10
-28.56445187389386
 20
-3.807927818620783
 30
0.0
 11
-27.80966586035572
 21
-4.000000000000113
 31
0.0
  0
ARC
  5
45D5862FB9B1B6
330
45D5862FB9B197
100
AcDbEntity
  8
ANCHOR
100
AcDbCircle
 10
-8.124533704613552
 20
-3.677132434562736
 30
0.0
 40
0.8874867422667101
100
AcDbArc
 50
190.3642942631646
 51
349.635705736834
  0
ARC
  5
45D5862FB9B1B7
330
45D5862FB9B197
100
AcDbEntity
  8
ANCHOR
100
AcDbCircle
 10
6.584628592071794
 20
-1.747662039717623
 30
0.0
 40
13.9929874013852
100
AcDbArc
 50
172.8252752806843
 51
188.8239615256986
  0
ARC
  5
45D5862FB9B1B8
330
45D5862FB9B197
100
AcDbEntity
  8
ANCHOR
100
AcDbCircle
 10
-13.70768451953648
 20
1.150085325504504
 30
0.0
 40
6.511266896266857
100
AcDbArc
 50
349.8264697254886
 51
25.9565697203773
  0
ARC
  5
45D5862FB9B1B9
330
45D5862FB9B197
100
AcDbEntity
  8
ANCHOR
100
AcDbCircle
 10
-9.463489266213684
 20
3.190950575755095
 30
0.0
 40
1.802076804268533
100
AcDbArc
 50
26.67658757755519
 51
96.39498099089957
  0
ARC
  5
45D5862FB9B1BA
330
45D5862FB9B197
100
AcDbEntity
  8
ANCHOR
100
AcDbCircle
 10
-14.92865948744673
 20
1.150085325504504
 30
0.0
 40
6.511266896266857
100
AcDbArc
 50
349.8264697254886
 51
36.04898565369147
  0
ARC
  5
45D5862FB9B1BB
330
45D5862FB9B197
100
AcDbEntity
  8
ANCHOR
100
AcDbCircle
 10
-2.588647728207774
 20
-2.686711445828904
 30
0.0
 40
6.511266896266857
100
AcDbArc
 50
155.6301603426011
 51
190.1735302745156
  0
ARC
  5
45D5862FB9B1BC
330
45D5862FB9B197
100
AcDbEntity
  8
ANCHOR
100
AcDbCircle
 10
-12.05874863682566
 20
0.6645632801199782
 30
0.0
 40
3.600837951916578
100
AcDbArc
 50
349.3646388296832
 51
67.86438504324549
  0
LINE
  5
45D5862FB9B1BD
330
45D5862FB9B197
100
AcDbEntity
  8
ANCHOR
100
AcDbLine
 10
-10.70195246803683
 20
3.999999999999886
 30
0.0
 11
-9.664207967611956
 21
4.981814281175841
 31
0.0
  0
ARC
  5
45D5862FB9B1BE
330
45D5862FB9B197
100
AcDbEntity
  8
ANCHOR
100
AcDbCircle
 10
-18.42341914345623
 20
-3.677132434562736
 30
0.0
 40
0.8874867422667101
100
AcDbArc
 50
190.3642942631646
 51
349.635705736834
  0
ARC
  5
45D5862FB9B1BF
330
45D5862FB9B197
100
AcDbEntity
  8
ANCHOR
100
AcDbCircle
 10
-3.714256846770922
 20
-1.747662039717623
 30
0.0
 40
13.9929874013852
100
AcDbArc
 50
172.8252752806843
 51
188.8239615256986
  0
ARC
  5
45D5862FB9B1C0
330
45D5862FB9B197
100
AcDbEntity
  8
ANCHOR
100
AcDbCircle
 10
-24.00656995837918
 20
1.150085325504504
 30
0.0
 40
6.511266896266857
100
AcDbArc
 50
349.8264697254886
 51
25.9565697203773
  0
ARC
  5
45D5862FB9B1C1
330
45D5862FB9B197
100
AcDbEntity
  8
ANCHOR
100
AcDbCircle
 10
-19.76237470505637
 20
3.190950575755095
 30
0.0
 40
1.802076804268533
100
AcDbArc
 50
26.67658757755519
 51
96.39498099089957
  0
ARC
  5
45D5862FB9B1C2
330
45D5862FB9B197
100
AcDbEntity
  8
ANCHOR
100
AcDbCircle
 10
-25.22754492628942
 20
1.150085325504504
 30
0.0
 40
6.511266896266857
100
AcDbArc
 50
349.8264697254886
 51
36.04898565369147
  0
ARC
  5
45D5862FB9B1C3
330
45D5862FB9B197
100
AcDbEntity
  8
ANCHOR
100
AcDbCircle
 10
-12.88753316705049
 20
-2.686711445828904
 30
0.0
 40
6.511266896266857
100
AcDbArc
 50
155.6301603426011
 51
190.1735302745156
  0
ARC
  5
45D5862FB9B1C4
330
45D5862FB9B197
100
AcDbEntity
  8
ANCHOR
100
AcDbCircle
 10
-22.35763407566835
 20
0.6645632801199782
 30
0.0
 40
3.600837951916578
100
AcDbArc
 50
349.3646388296832
 51
67.86438504324549
  0
LINE
  5
45D5862FB9B1C5
330
45D5862FB9B197
100
AcDbEntity
  8
ANCHOR
100
AcDbLine
 10
-21.00083790687952
 20
3.999999999999886
 30
0.0
 11
-19.96309340645464
 21
4.981814281175841
 31
0.0
  0
LINE
  5
45D5862FB9B1C6
330
45D5862FB9B197
100
AcDbEntity
  8
ANCHOR
100
AcDbLine
 10
-10.70195246803683
 20
3.999999999999886
 30
0.0
 11
-18.15212011723124
 21
3.999999999999886
 31
0.0
  0
LINE
  5
45D5862FB9B1C7
330
45D5862FB9B197
100
AcDbEntity
  8
ANCHOR
100
AcDbLine
 10
-8.951207311841756
 20
-4.000000000000113
 30
0.0
 11
-17.59674553622798
 21
-4.000000000000113
 31
0.0
  0
LINE
  5
45D5862FB9B1C8
330
45D5862FB9B197
100
AcDbEntity
  8
ANCHOR
100
AcDbLine
 10
0.0
 20
-7.000000000000111
 30
0.0
 11
0.0
 21
6.999999999999886
 31
0.0
  0
LINE
  5
45D5862FB9B1C9
330
45D5862FB9B197
100
AcDbEntity
  8
ANCHOR
100
AcDbLine
 10
0.0
 20
6.999999999999886
 30
0.0
 11
1.0
 21
6.999999999999886
 31
0.0
  0
LINE
  5
45D5862FB9B1CA
330
45D5862FB9B197
100
AcDbEntity
  8
ANCHOR
100
AcDbLine
 10
1.0
 20
-7.000000000000111
 30
0.0
 11
0.0
 21
-7.000000000000111
 31
0.0
  0
LINE
  5
45D5862FB9B1CB
330
45D5862FB9B197
100
AcDbEntity
  8
ANCHOR
100
AcDbLine
 10
1.0
 20
-7.000000000000111
 30
0.0
 11
1.0
 21
6.999999999999886
 31
0.0
  0
ARC
  5
45D5862FB9B1CC
330
45D5862FB9B197
100
AcDbEntity
  8
ANCHOR
100
AcDbCircle
 10
-5.666666666666682
 20
-0.0000000000001137
 30
0.0
 40
9.666666666666678
100
AcDbArc
 50
313.6028189727037
 51
357.9877572346776
  0
ARC
  5
45D5862FB9B1CD
330
45D5862FB9B197
100
AcDbEntity
  8
ANCHOR
100
AcDbCircle
 10
-22.81787120686635
 20
-0.0000000000001137
 30
0.0
 40
22.81787120686634
100
AcDbArc
 50
349.9038139628237
 51
10.09618603717622
  0
ARC
  5
45D5862FB9B1CE
330
45D5862FB9B197
100
AcDbEntity
  8
ANCHOR
100
AcDbCircle
 10
17.50803223633607
 20
3.417106911019343
 30
0.0
 40
17.87087898441617
100
AcDbArc
 50
168.4345147103952
 51
178.1308564357668
  0
ARC
  5
45D5862FB9B1CF
330
45D5862FB9B197
100
AcDbEntity
  8
ANCHOR
100
AcDbCircle
 10
17.60160962807049
 20
-2.896748337521898
 30
0.0
 40
17.87087898441617
100
AcDbArc
 50
181.7457459001955
 51
193.2637177855471
  0
LINE
  5
45D5862FB9B1D0
330
45D5862FB9B197
100
AcDbEntity
  8
ANCHOR
100
AcDbLine
 10
3.994039020996751
 20
-0.3394260755918594
 30
0.0
 11
2.89582772150237
 21
-0.3394260755918594
 31
0.0
  0
LINE
  5
45D5862FB9B1D1
330
45D5862FB9B197
100
AcDbEntity
  8
ANCHOR
100
AcDbLine
 10
2.89582772150237
 20
-0.3394260755918594
 30
0.0
 11
2.89582772150237
 21
0.3394260755916321
 31
0.0
  0
LINE
  5
45D5862FB9B1D2
330
45D5862FB9B197
100
AcDbEntity
  8
ANCHOR
100
AcDbLine
 10
2.89582772150237
 20
0.3394260755916321
 30
0.0
 11
3.994039020996751
 21
0.3394260755916321
 31
0.0
  0
ARC
  5
45D5862FB9B1D3
330
45D5862FB9B197
100
AcDbEntity
  8
ANCHOR
100
AcDbCircle
 10
-5.666666666666682
 20
-0.0000000000001137
 30
0.0
 40
9.666666666666678
100
AcDbArc
 50
2.012242765322295
 51
46.39718102729628
  0
ENDBLK
  5
45D5862FB9B1D5
330
45D5862FB9B197
100
AcDbEntity
  8
0
100
AcDbBlockEnd
  0
BLOCK
  5
45D5862FB9B1E9
330
45D5862FB9B1D6
100
AcDbEntity
  8
0
100
AcDbBlockBegin
  2
BISU40
 70
     0
 10
0.0
 20
0.0
 30
0.0
  3
BISU40
  1

  0
LWPOLYLINE
  5
45D5862FB9B1D7
330
45D5862FB9B1D6
100
AcDbEntity
  8
BISU
100
AcDbPolyline
 90
        2
 70
     0
 43
0.0
 10
-46.6141196272722
 20
0.0
 10
26.29596134604253
 20
0.0
  0
LWPOLYLINE
  5
45D5862FB9B1DB
330
45D5862FB9B1D6
100
AcDbEntity
  8
ANCHOR
100
AcDbPolyline
 90
        2
 70
     0
 43
0.0
 10
-36.57248094118017
 20
-2.950077202110492
 10
0.0
 20
-2.950077202110492
  0
LWPOLYLINE
  5
45D5862FB9B1DF
330
45D5862FB9B1D6
100
AcDbEntity
  8
ANCHOR
100
AcDbPolyline
 90
        5
 70
     0
 43
0.0
 10
-36.55436586270866
 20
-2.979176445010807
 10
-40.0
 20
0.0
 10
-36.57248094118017
 20
3.0
 10
0.0
 20
3.0
 10
0.0
 20
0.0
  0
LINE
  5
45D5862FB9B1E6
330
45D5862FB9B1D6
100
AcDbEntity
  8
ANCHOR
100
AcDbLine
 10
-40.0
 20
0.0
 30
0.0
 11
-34.28044362708032
 21
0.0
 31
0.0
  0
LINE
  5
45D5862FB9B1E7
330
45D5862FB9B1D6
100
AcDbEntity
  8
ANCHOR
100
AcDbLine
 10
-34.28044362708032
 20
0.0
 30
0.0
 11
-33.13442745672091
 21
3.0
 31
0.0
  0
INSERT
  5
45D5862FB9B1E8
330
45D5862FB9B1D6
100
AcDbEntity
  8
ANCHOR
100
AcDbBlockReference
  2
BS2M060
 10
0.0
 20
0.0000000000001137
 30
0.0
 50
180.0
  0
ENDBLK
  5
45D5862FB9B1EA
330
45D5862FB9B1D6
100
AcDbEntity
  8
0
100
AcDbBlockEnd
  0
BLOCK
  5
45D5862FB9B1F5
330
45D5862FB9B1EB
100
AcDbEntity
  8
0
100
AcDbBlockBegin
  2
BISU6
 70
     0
 10
0.0
 20
0.0
 30
0.0
  3
BISU6
  1

  0
LINE
  5
45D5862FB9B1EC
330
45D5862FB9B1EB
100
AcDbEntity
  8
BISU
100
AcDbLine
 10
-3.599999999999908
 20
-31.88697712941609
 30
0.0
 11
-3.599999999999908
 21
0.0
 31
0.0
  0
LINE
  5
45D5862FB9B1ED
330
45D5862FB9B1EB
100
AcDbEntity
  8
BISU
100
AcDbLine
 10
3.540092642532727
 20
-31.88697712941609
 30
0.0
 11
3.540092642532727
 21
0.0
 31
0.0
  0
LINE
  5
45D5862FB9B1EE
330
45D5862FB9B1EB
100
AcDbEntity
  8
CENTER
100
AcDbLine
 10
0.0
 20
-41.53694355272659
 30
0.0
 11
0.0
 21
15.69495608349905
 31
0.0
  0
LINE
  5
45D5862FB9B1EF
330
45D5862FB9B1EB
100
AcDbEntity
  8
BISU
100
AcDbLine
 10
0.0
 20
-36.0
 30
0.0
 11
0.0
 21
-29.13653235249637
 31
0.0
  0
LINE
  5
45D5862FB9B1F0
330
45D5862FB9B1EB
100
AcDbEntity
  8
BISU
100
AcDbLine
 10
0.0
 20
-36.0
 30
0.0
 11
-3.599999999999908
 21
-31.88697712941609
 31
0.0
  0
LINE
  5
45D5862FB9B1F1
330
45D5862FB9B1EB
100
AcDbEntity
  8
BISU
100
AcDbLine
 10
0.0
 20
-36.0
 30
0.0
 11
3.57501173401306
 21
-31.86523903525039
 31
0.0
  0
LINE
  5
45D5862FB9B1F2
330
45D5862FB9B1EB
100
AcDbEntity
  8
BISU
100
AcDbLine
 10
0.0
 20
-29.13653235249637
 30
0.0
 11
-3.599999999999908
 21
-27.76131294806509
 31
0.0
  0
INSERT
  5
45D5862FB9B1F3
330
45D5862FB9B1EB
100
AcDbEntity
  8
BISU
100
AcDbBlockReference
  2
BS2M060
 10
0.0
 20
0.0
 30
0.0
 41
1.199999999999999
 42
1.199999999999999
 43
1.199999999999999
 50
270.0
  0
LINE
  5
45D5862FB9B1F4
330
45D5862FB9B1EB
100
AcDbEntity
  8
BISU
100
AcDbLine
 10
-3.599999999999908
 20
0.0
 30
0.0
 11
0.0
 21
0.0
 31
0.0
  0
ENDBLK
  5
45D5862FB9B1F6
330
45D5862FB9B1EB
100
AcDbEntity
  8
0
100
AcDbBlockEnd
  0
BLOCK
  5
45D5862FB9B204
330
45D5862FB9B1F7
100
AcDbEntity
  8
0
100
AcDbBlockBegin
  2
BISU4
 70
     0
 10
0.0
 20
0.0
 30
0.0
  3
BISU4
  1

  0
LINE
  5
45D5862FB9B1F8
330
45D5862FB9B1F7
100
AcDbEntity
  8
BISU
100
AcDbLine
 10
20.0
 20
0.0
 30
0.0
 11
16.55436586270866
 21
2.979176445010807
 31
0.0
  0
LINE
  5
45D5862FB9B1F9
330
45D5862FB9B1F7
100
AcDbEntity
  8
BISU
100
AcDbLine
 10
20.0
 20
0.0
 30
0.0
 11
16.57248094118006
 21
-3.0
 31
0.0
  0
LINE
  5
45D5862FB9B1FA
330
45D5862FB9B1F7
100
AcDbEntity
  8
BISU
100
AcDbLine
 10
20.0
 20
0.0
 30
0.0
 11
14.28044362708033
 21
0.0
 31
0.0
  0
LINE
  5
45D5862FB9B1FB
330
45D5862FB9B1F7
100
AcDbEntity
  8
CENTER
100
AcDbLine
 10
24.6141196272722
 20
0.0
 30
0.0
 11
-14.55136414782418
 21
0.0
 31
0.0
  0
INSERT
  5
45D5862FB9B1FC
330
45D5862FB9B1F7
100
AcDbEntity
  8
BISU
100
AcDbBlockReference
  2
BS2M060
 10
0.0
 20
0.0
 30
0.0
  0
LWPOLYLINE
  5
45D5862FB9B1FD
330
45D5862FB9B1F7
100
AcDbEntity
  8
BISU
100
AcDbPolyline
 90
        2
 70
     0
 43
0.0
 10
16.57248094118006
 20
2.950077202110605
 10
0.0
 20
2.950077202110605
  0
LINE
  5
45D5862FB9B201
330
45D5862FB9B1F7
100
AcDbEntity
  8
BISU
100
AcDbLine
 10
14.28044362708033
 20
0.0
 30
0.0
 11
13.13442745672091
 21
-3.0
 31
0.0
  0
LINE
  5
45D5862FB9B202
330
45D5862FB9B1F7
100
AcDbEntity
  8
BISU
100
AcDbLine
 10
16.57248094118006
 20
-3.0
 30
0.0
 11
0.0
 21
-3.0
 31
0.0
  0
LINE
  5
45D5862FB9B203
330
45D5862FB9B1F7
100
AcDbEntity
  8
BISU
100
AcDbLine
 10
0.0
 20
-3.0
 30
0.0
 11
0.0
 21
0.0
 31
0.0
  0
ENDBLK
  5
45D5862FB9B205
330
45D5862FB9B1F7
100
AcDbEntity
  8
0
100
AcDbBlockEnd
  0
BLOCK
  5
45D5862FB9B210
330
45D5862FB9B206
100
AcDbEntity
  8
0
100
AcDbBlockBegin
  2
00000005
 70
     0
 10
0.0
 20
0.0
 30
0.0
  3
00000005
  1

  0
LINE
  5
45D5862FB9B207
330
45D5862FB9B206
100
AcDbEntity
  8
ANCHOR
100
AcDbLine
 10
19.15994999999998
 20
7.652022
 30
0.0
 11
45.732431
 21
7.652022
 31
0.0
  0
LINE
  5
45D5862FB9B208
330
45D5862FB9B206
100
AcDbEntity
  8
ANCHOR
100
AcDbLine
 10
21.45198699999999
 20
10.602099
 30
0.0
 11
22.598004
 21
13.602099
 31
0.0
  0
LINE
  5
45D5862FB9B209
330
45D5862FB9B206
100
AcDbEntity
  8
ANCHOR
100
AcDbLine
 10
15.732431
 20
10.602099
 30
0.0
 11
21.45198699999999
 21
10.602099
 31
0.0
  0
LINE
  5
45D5862FB9B20A
330
45D5862FB9B206
100
AcDbEntity
  8
ANCHOR
100
AcDbLine
 10
15.732431
 20
10.602099
 30
0.0
 11
19.178065
 21
7.622922999999999
 31
0.0
  0
LINE
  5
45D5862FB9B20B
330
45D5862FB9B206
100
AcDbEntity
  8
ANCHOR
100
AcDbLine
 10
15.732431
 20
10.602099
 30
0.0
 11
19.15994999999998
 21
13.602099
 31
0.0
  0
LINE
  5
45D5862FB9B20C
330
45D5862FB9B206
100
AcDbEntity
  8
ANCHOR
100
AcDbLine
 10
45.732431
 20
13.602099
 30
0.0
 11
45.732431
 21
10.602099
 31
0.0
  0
LINE
  5
45D5862FB9B20D
330
45D5862FB9B206
100
AcDbEntity
  8
ANCHOR
100
AcDbLine
 10
19.15994999999998
 20
13.602099
 30
0.0
 11
45.732431
 21
13.602099
 31
0.0
  0
INSERT
  5
45D5862FB9B20E
330
45D5862FB9B206
100
AcDbEntity
  8
ANCHOR
100
AcDbBlockReference
  2
BS2M060
 10
45.732431
 20
10.602099
 30
0.0
 50
180.0
  0
LINE
  5
45D5862FB9B20F
330
45D5862FB9B206
100
AcDbEntity
  8
BISU
100
AcDbLine
 10
11.118311
 20
10.602099
 30
0.0
 11
74.02839200000002
 21
10.602099
 31
0.0
  0
ENDBLK
  5
45D5862FB9B211
330
45D5862FB9B206
100
AcDbEntity
  8
0
100
AcDbBlockEnd
  0
BLOCK
  5
45D5862FB9B227
330
45D5862FB9B212
100
AcDbEntity
  8
0
100
AcDbBlockBegin
  2
00000002
 70
     0
 10
0.0
 20
0.0
 30
0.0
  3
00000002
  1

  0
ARC
  5
45D5862FB9B213
330
45D5862FB9B212
100
AcDbEntity
  8
DOUBUCHI
100
AcDbCircle
 10
107.794679
 20
56.78475
 30
0.0
 40
4.299999999999998
100
AcDbArc
 50
0.0
 51
90.0
  0
ARC
  5
45D5862FB9B214
330
45D5862FB9B212
100
AcDbEntity
  8
DOUBUCHI
100
AcDbCircle
 10
107.794679
 20
15.38475
 30
0.0
 40
4.299999999999998
100
AcDbArc
 50
270.0
 51
0.0
  0
ARC
  5
45D5862FB9B215
330
45D5862FB9B212
100
AcDbEntity
  8
DOUBUCHI
100
AcDbCircle
 10
16.394679
 20
15.38475
 30
0.0
 40
4.299999999999998
100
AcDbArc
 50
180.0
 51
270.0
  0
ARC
  5
45D5862FB9B216
330
45D5862FB9B212
100
AcDbEntity
  8
DOUBUCHI
100
AcDbCircle
 10
16.394679
 20
56.78475
 30
0.0
 40
4.299999999999998
100
AcDbArc
 50
90.0
 51
180.0
  0
LINE
  5
45D5862FB9B217
330
45D5862FB9B212
100
AcDbEntity
  8
DOUBUCHI
100
AcDbLine
 10
32.09467899999999
 20
11.08475
 30
0.0
 11
16.394679
 21
11.08475
 31
0.0
  0
LINE
  5
45D5862FB9B218
330
45D5862FB9B212
100
AcDbEntity
  8
DOUBUCHI
100
AcDbLine
 10
32.09467899999999
 20
13.38475
 30
0.0
 11
16.694679
 21
13.38475
 31
0.0
  0
LINE
  5
45D5862FB9B219
330
45D5862FB9B212
100
AcDbEntity
  8
DOUBUCHI
100
AcDbLine
 10
92.09467899999999
 20
13.38475
 30
0.0
 11
92.09467899999999
 21
11.08475
 31
0.0
  0
LINE
  5
45D5862FB9B21A
330
45D5862FB9B212
100
AcDbEntity
  8
DOUBUCHI
100
AcDbLine
 10
32.09467899999999
 20
11.08475
 30
0.0
 11
32.09467899999999
 21
13.38475
 31
0.0
  0
ARC
  5
45D5862FB9B21B
330
45D5862FB9B212
100
AcDbEntity
  8
DOUBUCHI
100
AcDbCircle
 10
107.494679
 20
56.48475
 30
0.0
 40
2.299999999999998
100
AcDbArc
 50
0.0
 51
90.0
  0
ARC
  5
45D5862FB9B21C
330
45D5862FB9B212
100
AcDbEntity
  8
DOUBUCHI
100
AcDbCircle
 10
107.494679
 20
15.68475
 30
0.0
 40
2.299999999999998
100
AcDbArc
 50
270.0
 51
0.0
  0
ARC
  5
45D5862FB9B21D
330
45D5862FB9B212
100
AcDbEntity
  8
DOUBUCHI
100
AcDbCircle
 10
16.694679
 20
15.68475
 30
0.0
 40
2.299999999999998
100
AcDbArc
 50
180.0
 51
270.0
  0
ARC
  5
45D5862FB9B21E
330
45D5862FB9B212
100
AcDbEntity
  8
DOUBUCHI
100
AcDbCircle
 10
16.694679
 20
56.48475
 30
0.0
 40
2.299999999999998
100
AcDbArc
 50
90.0
 51
180.0
  0
LINE
  5
45D5862FB9B21F
330
45D5862FB9B212
100
AcDbEntity
  8
DOUBUCHI
100
AcDbLine
 10
109.7946789999999
 20
56.48475
 30
0.0
 11
109.7946789999999
 21
15.68475
 31
0.0
  0
LINE
  5
45D5862FB9B220
330
45D5862FB9B212
100
AcDbEntity
  8
DOUBUCHI
100
AcDbLine
 10
107.494679
 20
13.38475
 30
0.0
 11
92.09467899999999
 21
13.38475
 31
0.0
  0
LINE
  5
45D5862FB9B221
330
45D5862FB9B212
100
AcDbEntity
  8
DOUBUCHI
100
AcDbLine
 10
14.394679
 20
15.68475
 30
0.0
 11
14.394679
 21
56.48475
 31
0.0
  0
LINE
  5
45D5862FB9B222
330
45D5862FB9B212
100
AcDbEntity
  8
DOUBUCHI
100
AcDbLine
 10
16.694679
 20
58.78475
 30
0.0
 11
107.494679
 21
58.78475
 31
0.0
  0
LINE
  5
45D5862FB9B223
330
45D5862FB9B212
100
AcDbEntity
  8
DOUBUCHI
100
AcDbLine
 10
107.794679
 20
11.08475
 30
0.0
 11
92.09467899999999
 21
11.08475
 31
0.0
  0
LINE
  5
45D5862FB9B224
330
45D5862FB9B212
100
AcDbEntity
  8
DOUBUCHI
100
AcDbLine
 10
112.094679
 20
56.78475
 30
0.0
 11
112.094679
 21
15.38475
 31
0.0
  0
LINE
  5
45D5862FB9B225
330
45D5862FB9B212
100
AcDbEntity
  8
DOUBUCHI
100
AcDbLine
 10
16.394679
 20
61.08475
 30
0.0
 11
107.794679
 21
61.08475
 31
0.0
  0
LINE
  5
45D5862FB9B226
330
45D5862FB9B212
100
AcDbEntity
  8
DOUBUCHI
100
AcDbLine
 10
12.09467899999999
 20
15.38475
 30
0.0
 11
12.09467899999999
 21
56.78475
 31
0.0
  0
ENDBLK
  5
45D5862FB9B228
330
45D5862FB9B212
100
AcDbEntity
  8
0
100
AcDbBlockEnd
  0
BLOCK
  5
45D5862FB9B27A
330
45D5862FB9B229
100
AcDbEntity
  8
0
100
AcDbBlockBegin
  2
00000004
 70
     0
 10
0.0
 20
0.0
 30
0.0
  3
00000004
  1

  0
LINE
  5
45D5862FB9B22A
330
45D5862FB9B229
100
AcDbEntity
  8
ANCHOR
100
AcDbLine
 10
18.75155757311006
 20
38.92927632335489
 30
0.0
 11
25.87735584486586
 21
37.11595758986515
 31
0.0
  0
LINE
  5
45D5862FB9B22B
330
45D5862FB9B229
100
AcDbEntity
  8
ANCHOR
100
AcDbLine
 10
18.53929870373592
 20
42.10625357566686
 30
0.0
 11
24.30421033890195
 21
43.57326426924703
 31
0.0
  0
LINE
  5
45D5862FB9B22C
330
45D5862FB9B229
100
AcDbEntity
  8
ANCHOR
100
AcDbLine
 10
61.58801774139754
 20
36.4631703433406
 30
0.0
 11
54.34247951701133
 21
36.4631703433406
 31
0.0
  0
LINE
  5
45D5862FB9B22D
330
45D5862FB9B229
100
AcDbEntity
  8
ANCHOR
100
AcDbLine
 10
52.68913230255481
 20
36.4631703433406
 30
0.0
 11
45.44359407816862
 21
36.4631703433406
 31
0.0
  0
LINE
  5
45D5862FB9B22E
330
45D5862FB9B229
100
AcDbEntity
  8
ANCHOR
100
AcDbLine
 10
43.79024686371212
 20
36.4631703433406
 30
0.0
 11
36.5447086393259
 21
36.4631703433406
 31
0.0
  0
LINE
  5
45D5862FB9B22F
330
45D5862FB9B229
100
AcDbEntity
  8
ANCHOR
100
AcDbLine
 10
42.03950170751688
 20
44.4631703433406
 30
0.0
 11
35.98933405832269
 21
44.4631703433406
 31
0.0
  0
LINE
  5
45D5862FB9B230
330
45D5862FB9B229
100
AcDbEntity
  8
ANCHOR
100
AcDbLine
 10
50.9383871463596
 20
44.4631703433406
 30
0.0
 11
44.88821949716538
 21
44.4631703433406
 31
0.0
  0
LINE
  5
45D5862FB9B231
330
45D5862FB9B229
100
AcDbEntity
  8
ANCHOR
100
AcDbLine
 10
59.83727258520247
 20
44.4631703433406
 30
0.0
 11
53.78710493600806
 21
44.4631703433406
 31
0.0
  0
LINE
  5
45D5862FB9B232
330
45D5862FB9B229
100
AcDbEntity
  8
ANCHOR
100
AcDbLine
 10
34.8913614248695
 20
36.4631703433406
 30
0.0
 11
28.44261375964896
 21
36.4631703433406
 31
0.0
  0
LINE
  5
45D5862FB9B233
330
45D5862FB9B229
100
AcDbEntity
  8
ANCHOR
100
AcDbLine
 10
33.14061626867413
 20
44.4631703433406
 30
0.0
 11
27.80127406393006
 21
44.4631703433406
 31
0.0
  0
LINE
  5
45D5862FB9B234
330
45D5862FB9B229
100
AcDbEntity
  8
ANCHOR
100
AcDbLine
 10
26.66510585229099
 20
44.17404693232197
 30
0.0
 11
27.80127406393035
 21
44.4631703433406
 31
0.0
  0
LINE
  5
45D5862FB9B235
330
45D5862FB9B229
100
AcDbEntity
  8
ANCHOR
100
AcDbLine
 10
27.68782774611043
 20
36.65524252471993
 30
0.0
 11
28.44261375964856
 21
36.4631703433406
 31
0.0
  0
LINE
  5
45D5862FB9B236
330
45D5862FB9B229
100
AcDbEntity
  8
ANCHOR
100
AcDbLine
 10
70.54560336229751
 20
36.4631703433406
 30
0.0
 11
63.24136495585396
 21
36.4631703433406
 31
0.0
  0
LINE
  5
45D5862FB9B237
330
45D5862FB9B229
100
AcDbEntity
  8
ANCHOR
100
AcDbLine
 10
70.54560336229751
 20
44.4631703433406
 30
0.0
 11
62.68599037485074
 21
44.4631703433406
 31
0.0
  0
LINE
  5
45D5862FB9B238
330
45D5862FB9B229
100
AcDbEntity
  8
ANCHOR
100
AcDbLine
 10
17.36074050143395
 20
41.80634308350318
 30
0.0
 11
17.8034234127727
 21
42.22516718154166
 31
0.0
  0
ARC
  5
45D5862FB9B239
330
45D5862FB9B229
100
AcDbEntity
  8
ANCHOR
100
AcDbCircle
 10
20.75526752166894
 20
39.31706815317761
 30
0.0
 40
2.777587917799392
100
AcDbArc
 50
155.6301603426011
 51
190.1735302745156
  0
ARC
  5
45D5862FB9B23A
330
45D5862FB9B229
100
AcDbEntity
  8
ANCHOR
100
AcDbCircle
 10
16.3326023049949
 20
40.94165395280663
 30
0.0
 40
1.952106795086448
100
AcDbArc
 50
345.8115833908174
 51
41.10960342915062
  0
ARC
  5
45D5862FB9B23B
330
45D5862FB9B229
100
AcDbEntity
  8
ANCHOR
100
AcDbCircle
 10
17.16478337608077
 20
40.73049030197068
 30
0.0
 40
1.093553109139046
100
AcDbArc
 50
345.8506185327935
 51
79.67723876572802
  0
ARC
  5
45D5862FB9B23C
330
45D5862FB9B229
100
AcDbEntity
  8
ANCHOR
100
AcDbCircle
 10
18.12614897144408
 20
41.81293089200699
 30
0.0
 40
0.5235365742992052
100
AcDbArc
 50
42.92754872806553
 51
128.0561654852055
  0
ARC
  5
45D5862FB9B23D
330
45D5862FB9B229
100
AcDbEntity
  8
ANCHOR
100
AcDbCircle
 10
16.01208885288048
 20
40.95377580544993
 30
0.0
 40
2.777587917799392
100
AcDbArc
 50
349.8264697254886
 51
25.9565697203773
  0
ARC
  5
45D5862FB9B23E
330
45D5862FB9B229
100
AcDbEntity
  8
ANCHOR
100
AcDbCircle
 10
24.66842019683451
 20
39.71764953406477
 30
0.0
 40
5.969153677649175
100
AcDbArc
 50
172.8252752806843
 51
188.8239615256986
  0
ARC
  5
45D5862FB9B23F
330
45D5862FB9B229
100
AcDbEntity
  8
ANCHOR
100
AcDbCircle
 10
18.393759347093
 20
38.89457259038329
 30
0.0
 40
0.3785856872094233
100
AcDbArc
 50
190.3642942631646
 51
349.635705736834
  0
LINE
  5
45D5862FB9B240
330
45D5862FB9B229
100
AcDbEntity
  8
ANCHOR
100
AcDbLine
 10
59.83727258520247
 20
44.4631703433406
 30
0.0
 11
60.87501708562736
 21
45.44498462451656
 31
0.0
  0
ARC
  5
45D5862FB9B241
330
45D5862FB9B229
100
AcDbEntity
  8
ANCHOR
100
AcDbCircle
 10
58.48047641641365
 20
41.12773362346071
 30
0.0
 40
3.600837951916578
100
AcDbArc
 50
349.3646388296832
 51
67.86438504324549
  0
ARC
  5
45D5862FB9B242
330
45D5862FB9B229
100
AcDbEntity
  8
ANCHOR
100
AcDbCircle
 10
67.95057732503153
 20
37.77645889751181
 30
0.0
 40
6.511266896266857
100
AcDbArc
 50
155.6301603426011
 51
190.1735302745156
  0
ARC
  5
45D5862FB9B243
330
45D5862FB9B229
100
AcDbEntity
  8
ANCHOR
100
AcDbCircle
 10
55.61056556579257
 20
41.61325566884523
 30
0.0
 40
6.511266896266857
100
AcDbArc
 50
349.8264697254886
 51
36.04898565369147
  0
ARC
  5
45D5862FB9B244
330
45D5862FB9B229
100
AcDbEntity
  8
ANCHOR
100
AcDbCircle
 10
61.07573578702561
 20
43.65412091909582
 30
0.0
 40
1.802076804268533
100
AcDbArc
 50
26.67658757755519
 51
96.39498099089957
  0
ARC
  5
45D5862FB9B245
330
45D5862FB9B229
100
AcDbEntity
  8
ANCHOR
100
AcDbCircle
 10
56.83154053370282
 20
41.61325566884523
 30
0.0
 40
6.511266896266857
100
AcDbArc
 50
349.8264697254886
 51
25.9565697203773
  0
ARC
  5
45D5862FB9B246
330
45D5862FB9B229
100
AcDbEntity
  8
ANCHOR
100
AcDbCircle
 10
77.1238536453111
 20
38.71550830362309
 30
0.0
 40
13.9929874013852
100
AcDbArc
 50
172.8252752806843
 51
188.8239615256986
  0
ARC
  5
45D5862FB9B247
330
45D5862FB9B229
100
AcDbEntity
  8
ANCHOR
100
AcDbCircle
 10
62.41469134862574
 20
36.78603790877798
 30
0.0
 40
0.8874867422667101
100
AcDbArc
 50
190.3642942631646
 51
349.635705736834
  0
LINE
  5
45D5862FB9B248
330
45D5862FB9B229
100
AcDbEntity
  8
ANCHOR
100
AcDbLine
 10
50.93838714635978
 20
44.4631703433406
 30
0.0
 11
51.97613164678466
 21
45.44498462451656
 31
0.0
  0
ARC
  5
45D5862FB9B249
330
45D5862FB9B229
100
AcDbEntity
  8
ANCHOR
100
AcDbCircle
 10
49.58159097757095
 20
41.12773362346071
 30
0.0
 40
3.600837951916578
100
AcDbArc
 50
349.3646388296832
 51
67.86438504324549
  0
ARC
  5
45D5862FB9B24A
330
45D5862FB9B229
100
AcDbEntity
  8
ANCHOR
100
AcDbCircle
 10
59.05169188618884
 20
37.77645889751181
 30
0.0
 40
6.511266896266857
100
AcDbArc
 50
155.6301603426011
 51
190.1735302745156
  0
ARC
  5
45D5862FB9B24B
330
45D5862FB9B229
100
AcDbEntity
  8
ANCHOR
100
AcDbCircle
 10
46.71168012694987
 20
41.61325566884523
 30
0.0
 40
6.511266896266857
100
AcDbArc
 50
349.8264697254886
 51
36.04898565369147
  0
ARC
  5
45D5862FB9B24C
330
45D5862FB9B229
100
AcDbEntity
  8
ANCHOR
100
AcDbCircle
 10
52.17685034818294
 20
43.65412091909582
 30
0.0
 40
1.802076804268533
100
AcDbArc
 50
26.67658757755519
 51
96.39498099089957
  0
ARC
  5
45D5862FB9B24D
330
45D5862FB9B229
100
AcDbEntity
  8
ANCHOR
100
AcDbCircle
 10
47.93265509486015
 20
41.61325566884523
 30
0.0
 40
6.511266896266857
100
AcDbArc
 50
349.8264697254886
 51
25.9565697203773
  0
ARC
  5
45D5862FB9B24E
330
45D5862FB9B229
100
AcDbEntity
  8
ANCHOR
100
AcDbCircle
 10
68.22496820646842
 20
38.71550830362309
 30
0.0
 40
13.9929874013852
100
AcDbArc
 50
172.8252752806843
 51
188.8239615256986
  0
ARC
  5
45D5862FB9B24F
330
45D5862FB9B229
100
AcDbEntity
  8
ANCHOR
100
AcDbCircle
 10
53.51580590978307
 20
36.78603790877798
 30
0.0
 40
0.8874867422667101
100
AcDbArc
 50
190.3642942631646
 51
349.635705736834
  0
ARC
  5
45D5862FB9B250
330
45D5862FB9B229
100
AcDbEntity
  8
ANCHOR
100
AcDbCircle
 10
44.61692047094039
 20
36.78603790877798
 30
0.0
 40
0.8874867422667101
100
AcDbArc
 50
190.3642942631646
 51
349.635705736834
  0
ARC
  5
45D5862FB9B251
330
45D5862FB9B229
100
AcDbEntity
  8
ANCHOR
100
AcDbCircle
 10
59.32608276762572
 20
38.71550830362309
 30
0.0
 40
13.9929874013852
100
AcDbArc
 50
172.8252752806843
 51
188.8239615256986
  0
ARC
  5
45D5862FB9B252
330
45D5862FB9B229
100
AcDbEntity
  8
ANCHOR
100
AcDbCircle
 10
39.03376965601745
 20
41.61325566884523
 30
0.0
 40
6.511266896266857
100
AcDbArc
 50
349.8264697254886
 51
25.9565697203773
  0
ARC
  5
45D5862FB9B253
330
45D5862FB9B229
100
AcDbEntity
  8
ANCHOR
100
AcDbCircle
 10
43.27796490934026
 20
43.65412091909582
 30
0.0
 40
1.802076804268533
100
AcDbArc
 50
26.67658757755519
 51
96.39498099089957
  0
ARC
  5
45D5862FB9B254
330
45D5862FB9B229
100
AcDbEntity
  8
ANCHOR
100
AcDbCircle
 10
37.8127946881072
 20
41.61325566884523
 30
0.0
 40
6.511266896266857
100
AcDbArc
 50
349.8264697254886
 51
36.04898565369147
  0
ARC
  5
45D5862FB9B255
330
45D5862FB9B229
100
AcDbEntity
  8
ANCHOR
100
AcDbCircle
 10
50.15280644734614
 20
37.77645889751181
 30
0.0
 40
6.511266896266857
100
AcDbArc
 50
155.6301603426011
 51
190.1735302745156
  0
ARC
  5
45D5862FB9B256
330
45D5862FB9B229
100
AcDbEntity
  8
ANCHOR
100
AcDbCircle
 10
40.68270553872827
 20
41.12773362346071
 30
0.0
 40
3.600837951916578
100
AcDbArc
 50
349.3646388296832
 51
67.86438504324549
  0
LINE
  5
45D5862FB9B257
330
45D5862FB9B229
100
AcDbEntity
  8
ANCHOR
100
AcDbLine
 10
42.03950170751709
 20
44.4631703433406
 30
0.0
 11
43.07724620794198
 21
45.44498462451656
 31
0.0
  0
LINE
  5
45D5862FB9B258
330
45D5862FB9B229
100
AcDbEntity
  8
ANCHOR
100
AcDbLine
 10
33.14061626867442
 20
44.4631703433406
 30
0.0
 11
34.1783607690993
 21
45.44498462451656
 31
0.0
  0
ARC
  5
45D5862FB9B259
330
45D5862FB9B229
100
AcDbEntity
  8
ANCHOR
100
AcDbCircle
 10
31.78382009988558
 20
41.12773362346071
 30
0.0
 40
3.600837951916578
100
AcDbArc
 50
349.3646388296832
 51
67.86438504324549
  0
ARC
  5
45D5862FB9B25A
330
45D5862FB9B229
100
AcDbEntity
  8
ANCHOR
100
AcDbCircle
 10
41.25392100850347
 20
37.77645889751181
 30
0.0
 40
6.511266896266857
100
AcDbArc
 50
155.6301603426011
 51
190.1735302745156
  0
ARC
  5
45D5862FB9B25B
330
45D5862FB9B229
100
AcDbEntity
  8
ANCHOR
100
AcDbCircle
 10
28.91390924926452
 20
41.61325566884523
 30
0.0
 40
6.511266896266857
100
AcDbArc
 50
349.8264697254886
 51
36.04898565369147
  0
ARC
  5
45D5862FB9B25C
330
45D5862FB9B229
100
AcDbEntity
  8
ANCHOR
100
AcDbCircle
 10
34.37907947049757
 20
43.65412091909582
 30
0.0
 40
1.802076804268533
100
AcDbArc
 50
26.67658757755519
 51
96.39498099089957
  0
ARC
  5
45D5862FB9B25D
330
45D5862FB9B229
100
AcDbEntity
  8
ANCHOR
100
AcDbCircle
 10
30.13488421717477
 20
41.61325566884523
 30
0.0
 40
6.511266896266857
100
AcDbArc
 50
349.8264697254886
 51
25.9565697203773
  0
ARC
  5
45D5862FB9B25E
330
45D5862FB9B229
100
AcDbEntity
  8
ANCHOR
100
AcDbCircle
 10
50.42719732878303
 20
38.71550830362309
 30
0.0
 40
13.9929874013852
100
AcDbArc
 50
172.8252752806843
 51
188.8239615256986
  0
ARC
  5
45D5862FB9B25F
330
45D5862FB9B229
100
AcDbEntity
  8
ANCHOR
100
AcDbCircle
 10
35.7180350320977
 20
36.78603790877798
 30
0.0
 40
0.8874867422667101
100
AcDbArc
 50
190.3642942631646
 51
349.635705736834
  0
ARC
  5
45D5862FB9B260
330
45D5862FB9B229
100
AcDbEntity
  8
ANCHOR
100
AcDbCircle
 10
26.8191495932549
 20
36.78603790877798
 30
0.0
 40
0.8874867422667101
100
AcDbArc
 50
190.3642942631646
 51
349.635705736834
  0
ARC
  5
45D5862FB9B261
330
45D5862FB9B229
100
AcDbEntity
  8
ANCHOR
100
AcDbCircle
 10
41.52831188994025
 20
38.71550830362309
 30
0.0
 40
13.9929874013852
100
AcDbArc
 50
172.8252752806843
 51
188.8239615256986
  0
ARC
  5
45D5862FB9B262
330
45D5862FB9B229
100
AcDbEntity
  8
ANCHOR
100
AcDbCircle
 10
23.74364375601771
 20
41.44001762542984
 30
0.0
 40
4.021686359744474
100
AcDbArc
 50
345.9425344962387
 51
32.0349085421964
  0
ARC
  5
45D5862FB9B263
330
45D5862FB9B229
100
AcDbEntity
  8
ANCHOR
100
AcDbCircle
 10
25.54267354072539
 20
42.76421484500224
 30
0.0
 40
1.802076804268533
100
AcDbArc
 50
26.67658757755519
 51
96.39498099089957
  0
ARC
  5
45D5862FB9B264
330
45D5862FB9B229
100
AcDbEntity
  8
ANCHOR
100
AcDbCircle
 10
23.89855283977544
 20
41.01938869831963
 30
0.0
 40
2.585892193881456
100
AcDbArc
 50
347.5787659366381
 51
80.97454101284926
  0
ARC
  5
45D5862FB9B265
330
45D5862FB9B229
100
AcDbEntity
  8
ANCHOR
100
AcDbCircle
 10
21.99272194691952
 20
41.48049425769078
 30
0.0
 40
4.546474407791096
100
AcDbArc
 50
347.06996550416
 51
42.55182514745697
  0
ARC
  5
45D5862FB9B266
330
45D5862FB9B229
100
AcDbEntity
  8
ANCHOR
100
AcDbCircle
 10
32.35503556966068
 20
37.77645889751181
 30
0.0
 40
6.511266896266857
100
AcDbArc
 50
155.6301603426011
 51
190.1735302745156
  0
LINE
  5
45D5862FB9B267
330
45D5862FB9B229
100
AcDbEntity
  8
ANCHOR
100
AcDbLine
 10
24.30421033890223
 20
43.57326426924703
 30
0.0
 11
25.34195483932711
 21
44.55507855042299
 31
0.0
  0
ARC
  5
45D5862FB9B268
330
45D5862FB9B229
100
AcDbEntity
  8
ANCHOR
100
AcDbCircle
 10
16.89894149115088
 20
40.43258615391903
 30
0.0
 40
1.0
100
AcDbArc
 50
180.0
 51
255.7228372690604
  0
ARC
  5
45D5862FB9B269
330
45D5862FB9B229
100
AcDbEntity
  8
ANCHOR
100
AcDbCircle
 10
16.89894149115088
 20
40.65695776142866
 30
0.0
 40
1.0
100
AcDbArc
 50
104.2771627309395
 51
180.0
  0
LINE
  5
45D5862FB9B26A
330
45D5862FB9B229
100
AcDbEntity
  8
ANCHOR
100
AcDbLine
 10
16.65232873369427
 20
39.4634720492545
 30
0.0
 11
17.98436251429797
 21
39.12450626382326
 31
0.0
  0
LINE
  5
45D5862FB9B26B
330
45D5862FB9B229
100
AcDbEntity
  8
ANCHOR
100
AcDbLine
 10
16.65232873369427
 20
41.62607186609316
 30
0.0
 11
17.36074050143378
 21
41.80634308350304
 31
0.0
  0
ARC
  5
45D5862FB9B26C
330
45D5862FB9B229
100
AcDbEntity
  8
ANCHOR
100
AcDbCircle
 10
65.23227482448419
 20
40.46317034334061
 30
0.0
 40
9.666666666666678
100
AcDbArc
 50
2.012242765322295
 51
46.39718102729628
  0
LINE
  5
45D5862FB9B26D
330
45D5862FB9B229
100
AcDbEntity
  8
ANCHOR
100
AcDbLine
 10
73.79476921265325
 20
40.80259641893235
 30
0.0
 11
74.89298051214763
 21
40.80259641893235
 31
0.0
  0
LINE
  5
45D5862FB9B26E
330
45D5862FB9B229
100
AcDbEntity
  8
ANCHOR
100
AcDbLine
 10
73.79476921265325
 20
40.12374426774885
 30
0.0
 11
73.79476921265325
 21
40.80259641893235
 31
0.0
  0
LINE
  5
45D5862FB9B26F
330
45D5862FB9B229
100
AcDbEntity
  8
ANCHOR
100
AcDbLine
 10
74.89298051214763
 20
40.12374426774885
 30
0.0
 11
73.79476921265325
 21
40.12374426774885
 31
0.0
  0
ARC
  5
45D5862FB9B270
330
45D5862FB9B229
100
AcDbEntity
  8
ANCHOR
100
AcDbCircle
 10
88.50055111922136
 20
37.56642200581882
 30
0.0
 40
17.87087898441617
100
AcDbArc
 50
181.7457459001955
 51
193.2637177855471
  0
ARC
  5
45D5862FB9B271
330
45D5862FB9B229
100
AcDbEntity
  8
ANCHOR
100
AcDbCircle
 10
88.40697372748696
 20
43.88027725436006
 30
0.0
 40
17.87087898441617
100
AcDbArc
 50
168.4345147103952
 51
178.1308564357668
  0
ARC
  5
45D5862FB9B272
330
45D5862FB9B229
100
AcDbEntity
  8
ANCHOR
100
AcDbCircle
 10
48.08107028428452
 20
40.46317034334061
 30
0.0
 40
22.81787120686634
100
AcDbArc
 50
349.9038139628237
 51
10.09618603717622
  0
LINE
  5
45D5862FB9B273
330
45D5862FB9B229
100
AcDbEntity
  8
BISU
100
AcDbLine
 10
78.95566833886856
 20
40.46317034334061
 30
0.0
 11
11.88596734050207
 21
40.46317034334061
 31
0.0
  0
ARC
  5
45D5862FB9B274
330
45D5862FB9B229
100
AcDbEntity
  8
ANCHOR
100
AcDbCircle
 10
65.23227482448419
 20
40.46317034334061
 30
0.0
 40
9.666666666666678
100
AcDbArc
 50
313.6028189727037
 51
357.9877572346776
  0
LINE
  5
45D5862FB9B275
330
45D5862FB9B229
100
AcDbEntity
  8
ANCHOR
100
AcDbLine
 10
71.89894149115088
 20
33.4631703433406
 30
0.0
 11
71.89894149115088
 21
47.46317034334061
 31
0.0
  0
LINE
  5
45D5862FB9B276
330
45D5862FB9B229
100
AcDbEntity
  8
ANCHOR
100
AcDbLine
 10
71.89894149115088
 20
33.4631703433406
 30
0.0
 11
70.89894149115088
 21
33.4631703433406
 31
0.0
  0
LINE
  5
45D5862FB9B277
330
45D5862FB9B229
100
AcDbEntity
  8
ANCHOR
100
AcDbLine
 10
70.89894149115088
 20
47.46317034334061
 30
0.0
 11
71.89894149115088
 21
47.46317034334061
 31
0.0
  0
LINE
  5
45D5862FB9B278
330
45D5862FB9B229
100
AcDbEntity
  8
ANCHOR
100
AcDbLine
 10
70.89894149115088
 20
33.4631703433406
 30
0.0
 11
70.89894149115088
 21
47.46317034334061
 31
0.0
  0
LINE
  5
45D5862FB9B279
330
45D5862FB9B229
100
AcDbEntity
  8
ANCHOR
100
AcDbLine
 10
17.53149989791159
 20
40.45012368493042
 30
0.0
 11
17.53149989791159
 21
40.54583652792155
 31
0.0
  0
ENDBLK
  5
45D5862FB9B27B
330
45D5862FB9B229
100
AcDbEntity
  8
0
100
AcDbBlockEnd
  0
BLOCK
  5
45D5862FB9B27E
330
45D5862FB9B27C
100
AcDbEntity
  8
0
100
AcDbBlockBegin
  2
P2
 70
     0
 10
0.0
 20
0.0
 30
0.0
  3
P2
  1

  0
INSERT
  5
45D5862FB9B27D
330
45D5862FB9B27C
100
AcDbEntity
  8
DOUBUCHI
100
AcDbBlockReference
  2
00000002
 10
-33.95899017871227
 20
86.19073819226583
 30
0.0
 50
270.0
  0
ENDBLK
  5
45D5862FB9B27F
330
45D5862FB9B27C
100
AcDbEntity
  8
0
100
AcDbBlockEnd
  0
BLOCK
  5
45D5862FBA4AEE
330
45D5862FBA4AED
100
AcDbEntity
  8
0
100
AcDbBlockBegin
  2
_DOT
 70
     0
 10
0.0
 20
0.0
 30
0.0
  3
_DOT
  1

  0
LWPOLYLINE
  5
45D5862FBA4AEF
330
45D5862FBA4AED
100
AcDbEntity
  8
0
  6
ByBlock
 62
     0
100
AcDbPolyline
 90
        2
 70
     1
 43
0.5
 10
-0.25
 20
0.0
 42
1.0
 10
0.25
 20
0.0
 42
1.0
  0
LINE
  5
45D5862FBA4AF3
330
45D5862FBA4AED
100
AcDbEntity
  8
0
  6
ByBlock
 62
     0
100
AcDbLine
 10
-0.5
 20
0.0
 30
0.0
 11
-1.0
 21
0.0
 31
0.0
  0
ENDBLK
  5
45D5862FBA4AF4
330
45D5862FBA4AED
100
AcDbEntity
  8
0
100
AcDbBlockEnd
  0
BLOCK
  5
45D5862FBA7891
330
45D5862FBA787A
100
AcDbEntity
  8
0
100
AcDbBlockBegin
  2
NS3M080
 70
     0
 10
0.0
 20
0.0
 30
0.0
  3
NS3M080
  1

  0
ARC
  5
45D5862FBA787B
330
45D5862FBA787A
100
AcDbEntity
  8
0
100
AcDbCircle
 10
-6.508080808080802
 20
-5.629165124598839
 30
0.0
 40
1.891919191919189
100
AcDbArc
 50
97.34650931445713
 51
262.6534906855428
  0
LINE
  5
45D5862FBA787C
330
45D5862FBA787A
100
AcDbEntity
  8
0
100
AcDbLine
 10
-1.599999999999994
 20
-7.505553499465122
 30
0.0
 11
-1.599999999999994
 21
7.505553499465122
 31
0.0
  0
LINE
  5
45D5862FBA787D
330
45D5862FBA787A
100
AcDbEntity
  8
0
100
AcDbLine
 10
0.0
 20
-8.5
 30
0.0
 11
0.0
 21
8.5
 31
0.0
  0
LINE
  5
45D5862FBA787E
330
45D5862FBA787A
100
AcDbEntity
  8
0
100
AcDbLine
 10
-1.599999999999994
 20
8.5
 30
0.0
 11
-1.599999999999994
 21
-8.5
 31
0.0
  0
LINE
  5
45D5862FBA787F
330
45D5862FBA787A
100
AcDbEntity
  8
0
100
AcDbLine
 10
-6.75
 20
-7.505553499465122
 30
0.0
 11
-1.599999999999994
 21
-7.505553499465122
 31
0.0
  0
LINE
  5
45D5862FBA7880
330
45D5862FBA787A
100
AcDbEntity
  8
0
100
AcDbLine
 10
-1.599999999999994
 20
-8.5
 30
0.0
 11
0.0
 21
-8.5
 31
0.0
  0
LINE
  5
45D5862FBA7881
330
45D5862FBA787A
100
AcDbEntity
  8
0
100
AcDbLine
 10
-1.599999999999994
 20
3.752776749732561
 30
0.0
 11
-6.75
 21
3.752776749732561
 31
0.0
  0
LINE
  5
45D5862FBA7882
330
45D5862FBA787A
100
AcDbEntity
  8
0
100
AcDbLine
 10
-1.599999999999994
 20
-3.752776749732561
 30
0.0
 11
-6.75
 21
-3.752776749732561
 31
0.0
  0
LINE
  5
45D5862FBA7883
330
45D5862FBA787A
100
AcDbEntity
  8
0
100
AcDbLine
 10
-1.599999999999994
 20
7.505553499465122
 30
0.0
 11
-6.75
 21
7.505553499465122
 31
0.0
  0
ARC
  5
45D5862FBA7884
330
45D5862FBA787A
100
AcDbEntity
  8
0
100
AcDbCircle
 10
-3.307323232323227
 20
0.0
 30
0.0
 40
5.092676767676763
100
AcDbArc
 50
132.5322705567571
 51
227.4677294432428
  0
LINE
  5
45D5862FBA7885
330
45D5862FBA787A
100
AcDbEntity
  8
0
100
AcDbLine
 10
-8.400000000000002
 20
5.629165124598839
 30
0.0
 11
-8.400000000000002
 21
-5.629165124598839
 31
0.0
  0
LINE
  5
45D5862FBA7886
330
45D5862FBA787A
100
AcDbEntity
  8
0
100
AcDbLine
 10
-10.08000000000001
 20
4.0
 30
0.0
 11
-10.08000000000001
 21
-4.0
 31
0.0
  0
LINE
  5
45D5862FBA7887
330
45D5862FBA787A
100
AcDbEntity
  8
0
100
AcDbLine
 10
-8.400000000000002
 20
-4.0
 30
0.0
 11
-8.400000000000002
 21
4.0
 31
0.0
  0
LINE
  5
45D5862FBA7888
330
45D5862FBA787A
100
AcDbEntity
  8
0
100
AcDbLine
 10
-10.80000000000001
 20
3.280000000000001
 30
0.0
 11
-10.80000000000001
 21
-3.280000000000001
 31
0.0
  0
LINE
  5
45D5862FBA7889
330
45D5862FBA787A
100
AcDbEntity
  8
1
100
AcDbLine
 10
-8.400000000000002
 20
-3.280000000000001
 30
0.0
 11
-10.80000000000001
 21
-3.280000000000001
 31
0.0
  0
LINE
  5
45D5862FBA788A
330
45D5862FBA787A
100
AcDbEntity
  8
0
100
AcDbLine
 10
-10.80000000000001
 20
-3.280000000000001
 30
0.0
 11
-10.08000000000001
 21
-4.0
 31
0.0
  0
LINE
  5
45D5862FBA788B
330
45D5862FBA787A
100
AcDbEntity
  8
0
100
AcDbLine
 10
-10.08000000000001
 20
-4.0
 30
0.0
 11
-8.400000000000002
 21
-4.0
 31
0.0
  0
LINE
  5
45D5862FBA788C
330
45D5862FBA787A
100
AcDbEntity
  8
1
100
AcDbLine
 10
-8.400000000000002
 20
3.280000000000001
 30
0.0
 11
-10.80000000000001
 21
3.280000000000001
 31
0.0
  0
LINE
  5
45D5862FBA788D
330
45D5862FBA787A
100
AcDbEntity
  8
0
100
AcDbLine
 10
-10.08000000000001
 20
4.0
 30
0.0
 11
-10.80000000000001
 21
3.280000000000001
 31
0.0
  0
ARC
  5
45D5862FBA788E
330
45D5862FBA787A
100
AcDbEntity
  8
0
100
AcDbCircle
 10
-6.508080808080802
 20
5.629165124598839
 30
0.0
 40
1.89191919191919
100
AcDbArc
 50
97.34650931445713
 51
262.6534906855428
  0
LINE
  5
45D5862FBA788F
330
45D5862FBA787A
100
AcDbEntity
  8
0
100
AcDbLine
 10
-8.400000000000002
 20
4.0
 30
0.0
 11
-10.08000000000001
 21
4.0
 31
0.0
  0
LINE
  5
45D5862FBA7890
330
45D5862FBA787A
100
AcDbEntity
  8
0
100
AcDbLine
 10
0.0
 20
8.5
 30
0.0
 11
-1.599999999999994
 21
8.5
 31
0.0
  0
ENDBLK
  5
45D5862FBA7892
330
45D5862FBA787A
100
AcDbEntity
  8
0
100
AcDbBlockEnd
  0
BLOCK
  5
45D5862FBA79C5
330
45D5862FBA79C1
100
AcDbEntity
  8
0
100
AcDbBlockBegin
  2
YAZ1
 70
     0
 10
0.0
 20
0.0
 30
0.0
  3
YAZ1
  1

  0
LINE
  5
45D5862FBA79C2
330
45D5862FBA79C1
100
AcDbEntity
  8
0
 62
     0
100
AcDbLine
 10
-1.0
 20
0.0
 30
0.0
 11
0.0
 21
0.0
 31
0.0
  0
LINE
  5
45D5862FBA79C3
330
45D5862FBA79C1
100
AcDbEntity
  8
0
 62
     0
100
AcDbLine
 10
0.0
 20
0.0
 30
0.0
 11
-1.0
 21
0.2679491924311037
 31
0.0
  0
LINE
  5
45D5862FBA79C4
330
45D5862FBA79C1
100
AcDbEntity
  8
0
 62
     0
100
AcDbLine
 10
0.0
 20
0.0
 30
0.0
 11
-1.0
 21
-0.2679491924311037
 31
0.0
  0
ENDBLK
  5
45D5862FBA79C6
330
45D5862FBA79C1
100
AcDbEntity
  8
0
100
AcDbBlockEnd
  0
BLOCK
  5
45D5862FBA8264
330
45D5862FBA825A
100
AcDbEntity
  8
0
100
AcDbBlockBegin
  2
AN30×30
 70
     0
 10
0.0
 20
0.0
 30
0.0
  3
AN30×30
  1

  0
LINE
  5
45D5862FBA825B
330
45D5862FBA825A
100
AcDbEntity
  8
DOUBUCHI
100
AcDbLine
 10
89.73219993129374
 20
173.6373478307011
 30
0.0
 11
89.73219993129374
 21
143.6373478307011
 31
0.0
  0
LINE
  5
45D5862FBA825C
330
45D5862FBA825A
100
AcDbEntity
  8
DOUBUCHI
100
AcDbLine
 10
92.73219993129371
 20
166.3873478307011
 30
0.0
 11
92.73219993129371
 21
145.6373478307011
 31
0.0
  0
ARC
  5
45D5862FBA825D
330
45D5862FBA825A
100
AcDbEntity
  8
DOUBUCHI
100
AcDbCircle
 10
90.73219993129374
 20
145.6373478307011
 30
0.0
 40
2.0
100
AcDbArc
 50
270.0
 51
0.0
  0
LINE
  5
45D5862FBA825E
330
45D5862FBA825A
100
AcDbEntity
  8
DOUBUCHI
100
AcDbLine
 10
89.73219993129374
 20
143.6373478307011
 30
0.0
 11
90.73219993129374
 21
143.6373478307011
 31
0.0
  0
ARC
  5
45D5862FBA825F
330
45D5862FBA825A
100
AcDbEntity
  8
DOUBUCHI
100
AcDbCircle
 10
96.98219993129374
 20
166.3873478307011
 30
0.0
 40
4.25
100
AcDbArc
 50
90.0
 51
180.0
  0
LINE
  5
45D5862FBA8260
330
45D5862FBA825A
100
AcDbEntity
  8
DOUBUCHI
100
AcDbLine
 10
96.98219993129374
 20
170.6373478307011
 30
0.0
 11
117.7321999312937
 21
170.6373478307011
 31
0.0
  0
LINE
  5
45D5862FBA8261
330
45D5862FBA825A
100
AcDbEntity
  8
DOUBUCHI
100
AcDbLine
 10
89.73219993129374
 20
173.6373478307011
 30
0.0
 11
119.7321999312937
 21
173.6373478307011
 31
0.0
  0
ARC
  5
45D5862FBA8262
330
45D5862FBA825A
100
AcDbEntity
  8
DOUBUCHI
100
AcDbCircle
 10
117.7321999312937
 20
172.6373478307011
 30
0.0
 40
2.0
100
AcDbArc
 50
270.0000000000001
 51
0.0
  0
LINE
  5
45D5862FBA8263
330
45D5862FBA825A
100
AcDbEntity
  8
DOUBUCHI
100
AcDbLine
 10
119.7321999312937
 20
173.6373478307011
 30
0.0
 11
119.7321999312937
 21
172.6373478307011
 31
0.0
  0
ENDBLK
  5
45D5862FBA8265
330
45D5862FBA825A
100
AcDbEntity
  8
0
100
AcDbBlockEnd
  0
BLOCK
  5
45D5862FBAAD7E
330
45D5862FBAAD4B
100
AcDbEntity
  8
0
100
AcDbBlockBegin
  2
金具
 70
     0
 10
0.0
 20
0.0
 30
0.0
  3
金具
  1

  0
LINE
  5
45D5862FBAAD4C
330
45D5862FBAAD4B
100
AcDbEntity
  8
CENTER
100
AcDbLine
 10
-194.0386986881276
 20
734.8375445446722
 30
0.0
 11
-171.3603566997567
 21
660.6600302691306
 31
0.0
  0
LINE
  5
45D5862FBAAD4D
330
45D5862FBAAD4B
100
AcDbEntity
  8
PIECE
100
AcDbLine
 10
-228.3139338439608
 20
703.9780958942584
 30
0.0
 11
-148.3668562454511
 21
728.4203704090791
 31
0.0
  0
LINE
  5
45D5862FBAAD4E
330
45D5862FBAAD4B
100
AcDbEntity
  8
PIECE
100
AcDbLine
 10
-224.8846630290827
 20
689.3411528500902
 30
0.0
 11
-143.024975918647
 21
714.3681707743565
 31
0.0
  0
LINE
  5
45D5862FBAAD4F
330
45D5862FBAAD4B
100
AcDbEntity
  8
PIECE
100
AcDbLine
 10
-215.4191358548031
 20
654.2764441629648
 30
0.0
 11
-214.2715701476475
 21
654.6272902086321
 31
0.0
  0
LINE
  5
45D5862FBAAD50
330
45D5862FBAAD4B
100
AcDbEntity
  8
PIECE
100
AcDbLine
 10
-229.7745865566894
 20
701.2310076807498
 30
0.0
 11
-215.4191358548031
 21
654.2764441629648
 31
0.0
  0
LINE
  5
45D5862FBAAD51
330
45D5862FBAAD4B
100
AcDbEntity
  8
PIECE
100
AcDbLine
 10
-145.6197680319423
 20
726.9597176963506
 30
0.0
 11
-131.264317330056
 21
680.0051541785656
 31
0.0
  0
LINE
  5
45D5862FBAAD52
330
45D5862FBAAD4B
100
AcDbEntity
  8
PIECE
100
AcDbLine
 10
-228.6270208495337
 20
701.5818537264169
 30
0.0
 11
-214.2715701476475
 21
654.6272902086321
 31
0.0
  0
LINE
  5
45D5862FBAAD53
330
45D5862FBAAD4B
100
AcDbEntity
  8
PIECE
100
AcDbLine
 10
-146.767333739098
 20
726.6088716506833
 30
0.0
 11
-132.4118830372116
 21
679.6543081328982
 31
0.0
  0
LINE
  5
45D5862FBAAD54
330
45D5862FBAAD4B
100
AcDbEntity
  8
PIECE
100
AcDbLine
 10
-227.9630877982934
 20
702.8305301871028
 30
0.0
 11
-148.0160101997838
 21
727.2728047019236
 31
0.0
  0
LINE
  5
45D5862FBAAD55
330
45D5862FBAAD4B
100
AcDbEntity
  8
PIECE
100
AcDbLine
 10
-225.5330768863951
 20
687.3576546693417
 30
0.0
 11
-224.3855111792394
 21
687.708500715009
 31
0.0
  0
LINE
  5
45D5862FBAAD56
330
45D5862FBAAD4B
100
AcDbEntity
  8
PIECE
100
AcDbLine
 10
-142.5258240688037
 20
712.7355186392754
 30
0.0
 11
-141.378258361648
 21
713.0863646849425
 31
0.0
  0
LINE
  5
45D5862FBAAD57
330
45D5862FBAAD4B
100
AcDbEntity
  8
PIECE
100
AcDbLine
 10
-132.4118830372116
 20
679.6543081328982
 30
0.0
 11
-131.264317330056
 21
680.0051541785656
 31
0.0
  0
LINE
  5
45D5862FBAAD58
330
45D5862FBAAD4B
100
AcDbEntity
  8
PIECE
100
AcDbLine
 10
-244.762375646525
 20
698.9493025730272
 30
0.0
 11
-244.4115296008577
 21
697.8017368658717
 31
0.0
  0
LINE
  5
45D5862FBAAD59
330
45D5862FBAAD4B
100
AcDbEntity
  8
PIECE
100
AcDbLine
 10
-244.4115296008577
 20
697.8017368658717
 30
0.0
 11
-229.8285684798205
 21
702.2601955070915
 31
0.0
  0
ARC
  5
45D5862FBAAD5A
330
45D5862FBAAD4B
100
AcDbEntity
  8
PIECE
100
AcDbCircle
 10
-227.6707160935707
 20
701.8742254311397
 30
0.0
 40
1.0
100
AcDbArc
 50
107.0
 51
197.0
  0
ARC
  5
45D5862FBAAD5B
330
45D5862FBAAD4B
100
AcDbEntity
  8
PIECE
100
AcDbCircle
 10
-147.723638495061
 20
726.3164999459607
 30
0.0
 40
1.0
100
AcDbArc
 50
17.0
 51
107.0
  0
ARC
  5
45D5862FBAAD5C
330
45D5862FBAAD4B
100
AcDbEntity
  8
PIECE
100
AcDbCircle
 10
-147.723638495061
 20
726.3164999459607
 30
0.0
 40
2.2
100
AcDbArc
 50
17.0
 51
107.0
  0
ARC
  5
45D5862FBAAD5D
330
45D5862FBAAD4B
100
AcDbEntity
  8
PIECE
100
AcDbCircle
 10
-227.6707160935707
 20
701.8742254311397
 30
0.0
 40
2.2
100
AcDbArc
 50
107.0
 51
197.0
  0
LINE
  5
45D5862FBAAD5E
330
45D5862FBAAD4B
100
AcDbEntity
  8
PIECE
100
AcDbLine
 10
-244.762375646525
 20
698.9493025730272
 30
0.0
 11
-228.3139338439608
 21
703.9780958942584
 31
0.0
  0
LINE
  5
45D5862FBAAD5F
330
45D5862FBAAD4B
100
AcDbEntity
  8
CENTER
100
AcDbLine
 10
-152.9414420958829
 20
735.2228730398191
 30
0.0
 11
-130.2631001075121
 21
661.0453587642776
 31
0.0
  0
LINE
  5
45D5862FBAAD60
330
45D5862FBAAD4B
100
AcDbEntity
  8
PIECE
  6
DASHED2
100
AcDbLine
 10
-157.6436939240366
 20
672.9623535744917
 30
0.0
 11
-114.2274580033146
 21
686.236028968904
 31
0.0
  0
LINE
  5
45D5862FBAAD61
330
45D5862FBAAD4B
100
AcDbEntity
  8
PIECE
  6
DASHED2
100
AcDbLine
 10
-156.9712390031744
 20
670.7628526357767
 30
0.0
 11
-113.5550030824524
 21
684.0365280301893
 31
0.0
  0
LINE
  5
45D5862FBAAD62
330
45D5862FBAAD4B
100
AcDbEntity
  8
PIECE
  6
DASHED2
100
AcDbLine
 10
-193.9862621133687
 20
697.0911276296263
 30
0.0
 11
-174.0951231893377
 21
703.1724590878592
 31
0.0
  0
LINE
  5
45D5862FBAAD63
330
45D5862FBAAD4B
100
AcDbEntity
  8
PIECE
  6
DASHED2
100
AcDbLine
 10
-117.4818816363259
 20
720.4808640074452
 30
0.0
 11
-97.59074271229486
 21
726.5621954656782
 31
0.0
  0
LINE
  5
45D5862FBAAD64
330
45D5862FBAAD4B
100
AcDbEntity
  8
PIECE
  6
DASHED2
100
AcDbLine
 10
-160.5156497836139
 20
674.4893995923445
 30
0.0
 11
-168.3512114701831
 21
700.1183670521538
 31
0.0
  0
LINE
  5
45D5862FBAAD65
330
45D5862FBAAD4B
100
AcDbEntity
  8
PIECE
  6
DASHED2
100
AcDbLine
 10
-112.7004119854619
 20
689.1079848284814
 30
0.0
 11
-120.5359736720313
 21
714.7369522882907
 31
0.0
  0
LINE
  5
45D5862FBAAD66
330
45D5862FBAAD4B
100
AcDbEntity
  8
PIECE
  6
DASHED2
100
AcDbLine
 10
-116.8094267154637
 20
718.2813630687303
 30
0.0
 11
-96.91828779143257
 21
724.3626945269632
 31
0.0
  0
LINE
  5
45D5862FBAAD67
330
45D5862FBAAD4B
100
AcDbEntity
  8
PIECE
  6
DASHED2
100
AcDbLine
 10
-110.500911046747
 20
689.7804397493437
 30
0.0
 11
-118.3364727333163
 21
715.4094072091527
 31
0.0
  0
LINE
  5
45D5862FBAAD68
330
45D5862FBAAD4B
100
AcDbEntity
  8
PIECE
  6
DASHED2
100
AcDbLine
 10
-162.715150722329
 20
673.8169446714822
 30
0.0
 11
-170.5507124088979
 21
699.4459121312916
 31
0.0
  0
LINE
  5
45D5862FBAAD69
330
45D5862FBAAD4B
100
AcDbEntity
  8
PIECE
  6
DASHED2
100
AcDbLine
 10
-193.3138071925064
 20
694.8916266909114
 30
0.0
 11
-173.4226682684752
 21
700.9729581491442
 31
0.0
  0
LINE
  5
45D5862FBAAD6A
330
45D5862FBAAD4B
100
AcDbEntity
  8
PIECE
  6
DASHED2
100
AcDbLine
 10
-91.84683099314026
 20
723.5081034299727
 30
0.0
 11
-82.66635946484631
 21
693.4801340927336
 31
0.0
  0
LINE
  5
45D5862FBAAD6B
330
45D5862FBAAD4B
100
AcDbEntity
  8
PIECE
  6
DASHED2
100
AcDbLine
 10
-197.0403541490741
 20
691.3472159104718
 30
0.0
 11
-187.8598826207802
 21
661.3192465732325
 31
0.0
  0
LINE
  5
45D5862FBAAD6C
330
45D5862FBAAD4B
100
AcDbEntity
  8
PIECE
  6
DASHED2
100
AcDbLine
 10
-94.04633193185521
 20
722.8356485091105
 30
0.0
 11
-84.86586040356121
 21
692.8076791718711
 31
0.0
  0
LINE
  5
45D5862FBAAD6D
330
45D5862FBAAD4B
100
AcDbEntity
  8
PIECE
  6
DASHED2
100
AcDbLine
 10
-194.8408532103591
 20
692.0196708313341
 30
0.0
 11
-185.6603816820652
 21
661.9917014940947
 31
0.0
  0
LINE
  5
45D5862FBAAD6E
330
45D5862FBAAD4B
100
AcDbEntity
  8
PIECE
  6
DASHED2
100
AcDbLine
 10
-187.8598826207802
 20
661.3192465732325
 30
0.0
 11
-185.6603816820652
 21
661.9917014940947
 31
0.0
  0
LINE
  5
45D5862FBAAD6F
330
45D5862FBAAD4B
100
AcDbEntity
  8
PIECE
  6
DASHED2
100
AcDbLine
 10
-84.86586040356121
 20
692.8076791718711
 30
0.0
 11
-82.66635946484631
 21
693.4801340927336
 31
0.0
  0
LINE
  5
45D5862FBAAD70
330
45D5862FBAAD4B
100
AcDbEntity
  8
PIECE
  6
DASHED2
100
AcDbLine
 10
-139.9998711765184
 20
678.3566115266262
 30
0.0
 11
-139.3274162556562
 21
676.1571105879112
 31
0.0
  0
LINE
  5
45D5862FBAAD71
330
45D5862FBAAD4B
100
AcDbEntity
  8
PIECE
  6
DASHED2
100
AcDbLine
 10
-131.8712807508326
 20
680.8417710167693
 30
0.0
 11
-131.1988258299703
 21
678.6422700780547
 31
0.0
  0
ARC
  5
45D5862FBAAD72
330
45D5862FBAAD4B
100
AcDbEntity
  8
PIECE
  6
DASHED2
100
AcDbCircle
 10
-172.7502133476129
 20
698.7734572104292
 30
0.0
 40
2.299999999999998
100
AcDbArc
 50
16.99999999999938
 51
107.0
  0
ARC
  5
45D5862FBAAD73
330
45D5862FBAAD4B
100
AcDbEntity
  8
PIECE
  6
DASHED2
100
AcDbCircle
 10
-158.316148844899
 20
675.1618545132068
 30
0.0
 40
2.299999999999998
100
AcDbArc
 50
196.9999999999997
 51
287.0
  0
ARC
  5
45D5862FBAAD74
330
45D5862FBAAD4B
100
AcDbEntity
  8
PIECE
  6
DASHED2
100
AcDbCircle
 10
-114.8999129241769
 20
688.4355299076191
 30
0.0
 40
2.299999999999998
100
AcDbArc
 50
287.0
 51
17.0
  0
ARC
  5
45D5862FBAAD75
330
45D5862FBAAD4B
100
AcDbEntity
  8
PIECE
  6
DASHED2
100
AcDbCircle
 10
-116.1369717946014
 20
716.0818621300152
 30
0.0
 40
2.299999999999998
100
AcDbArc
 50
107.0
 51
197.0
  0
ARC
  5
45D5862FBAAD76
330
45D5862FBAAD4B
100
AcDbEntity
  8
PIECE
  6
DASHED2
100
AcDbCircle
 10
-96.24583287057021
 20
722.1631935882482
 30
0.0
 40
2.299999999999998
100
AcDbArc
 50
16.99999999999993
 51
107.0
  0
ARC
  5
45D5862FBAAD77
330
45D5862FBAAD4B
100
AcDbEntity
  8
PIECE
  6
DASHED2
100
AcDbCircle
 10
-192.6413522716441
 20
692.6921257521961
 30
0.0
 40
2.299999999999998
100
AcDbArc
 50
107.0
 51
196.9999999999997
  0
ARC
  5
45D5862FBAAD78
330
45D5862FBAAD4B
100
AcDbEntity
  8
PIECE
  6
DASHED2
100
AcDbCircle
 10
-192.6413522716441
 20
692.6921257521961
 30
0.0
 40
4.599999999999997
100
AcDbArc
 50
107.0
 51
197.0
  0
ARC
  5
45D5862FBAAD79
330
45D5862FBAAD4B
100
AcDbEntity
  8
PIECE
  6
DASHED2
100
AcDbCircle
 10
-172.750213347613
 20
698.7734572104292
 30
0.0
 40
4.599999999999997
100
AcDbArc
 50
16.99999999999961
 51
107.0
  0
ARC
  5
45D5862FBAAD7A
330
45D5862FBAAD4B
100
AcDbEntity
  8
PIECE
  6
DASHED2
100
AcDbCircle
 10
-158.316148844899
 20
675.1618545132068
 30
0.0
 40
4.599999999999997
100
AcDbArc
 50
196.9999999999996
 51
287.0
  0
ARC
  5
45D5862FBAAD7B
330
45D5862FBAAD4B
100
AcDbEntity
  8
PIECE
  6
DASHED2
100
AcDbCircle
 10
-116.1369717946013
 20
716.0818621300152
 30
0.0
 40
4.599999999999997
100
AcDbArc
 50
107.0
 51
197.0
  0
ARC
  5
45D5862FBAAD7C
330
45D5862FBAAD4B
100
AcDbEntity
  8
PIECE
  6
DASHED2
100
AcDbCircle
 10
-96.24583287057021
 20
722.1631935882482
 30
0.0
 40
4.599999999999997
100
AcDbArc
 50
17.0
 51
107.0
  0
ARC
  5
45D5862FBAAD7D
330
45D5862FBAAD4B
100
AcDbEntity
  8
PIECE
  6
DASHED2
100
AcDbCircle
 10
-114.8999129241769
 20
688.435529907619
 30
0.0
 40
4.599999999999997
100
AcDbArc
 50
287.0
 51
17.0
  0
ENDBLK
  5
45D5862FBAAD7F
330
45D5862FBAAD4B
100
AcDbEntity
  8
0
100
AcDbBlockEnd
  0
BLOCK
  5
45D5862FBAB58F
330
45D5862FBAB581
100
AcDbEntity
  8
0
100
AcDbBlockBegin
  2
*X19
 70
     1
 10
0.0
 20
0.0
 30
0.0
  3
*X19
  1

  0
LINE
  5
45D5862FBAB582
330
45D5862FBAB581
100
AcDbEntity
  8
0
 62
     0
100
AcDbLine
 10
705.0051332179497
 20
948.5605558073663
 30
0.0
 11
705.0051332179497
 21
968.5605558073662
 31
0.0
  0
LINE
  5
45D5862FBAB583
330
45D5862FBAB581
100
AcDbEntity
  8
0
 62
     0
100
AcDbLine
 10
704.0051332179497
 20
948.5605558073663
 30
0.0
 11
704.0051332179497
 21
968.5605558073662
 31
0.0
  0
LINE
  5
45D5862FBAB584
330
45D5862FBAB581
100
AcDbEntity
  8
0
 62
     0
100
AcDbLine
 10
703.0051332179497
 20
948.5605558073663
 30
0.0
 11
703.0051332179497
 21
968.5605558073662
 31
0.0
  0
LINE
  5
45D5862FBAB585
330
45D5862FBAB581
100
AcDbEntity
  8
0
 62
     0
100
AcDbLine
 10
702.0051332179497
 20
948.5605558073663
 30
0.0
 11
702.0051332179497
 21
968.5605558073662
 31
0.0
  0
LINE
  5
45D5862FBAB586
330
45D5862FBAB581
100
AcDbEntity
  8
0
 62
     0
100
AcDbLine
 10
701.0051332179497
 20
948.5605558073663
 30
0.0
 11
701.0051332179497
 21
968.5605558073662
 31
0.0
  0
LINE
  5
45D5862FBAB587
330
45D5862FBAB581
100
AcDbEntity
  8
0
 62
     0
100
AcDbLine
 10
700.0051332179497
 20
948.5605558073663
 30
0.0
 11
700.0051332179497
 21
968.5605558073662
 31
0.0
  0
LINE
  5
45D5862FBAB588
330
45D5862FBAB581
100
AcDbEntity
  8
0
 62
     0
100
AcDbLine
 10
706.0051332179497
 20
948.5605558073663
 30
0.0
 11
706.0051332179497
 21
968.5605558073662
 31
0.0
  0
LINE
  5
45D5862FBAB589
330
45D5862FBAB581
100
AcDbEntity
  8
0
 62
     0
100
AcDbLine
 10
707.0051332179497
 20
948.5605558073663
 30
0.0
 11
707.0051332179497
 21
968.5605558073662
 31
0.0
  0
LINE
  5
45D5862FBAB58A
330
45D5862FBAB581
100
AcDbEntity
  8
0
 62
     0
100
AcDbLine
 10
708.0051332179497
 20
948.5605558073663
 30
0.0
 11
708.0051332179497
 21
968.5605558073662
 31
0.0
  0
LINE
  5
45D5862FBAB58B
330
45D5862FBAB581
100
AcDbEntity
  8
0
 62
     0
100
AcDbLine
 10
709.0051332179497
 20
948.5605558073663
 30
0.0
 11
709.0051332179497
 21
968.5605558073662
 31
0.0
  0
LINE
  5
45D5862FBAB58C
330
45D5862FBAB581
100
AcDbEntity
  8
0
 62
     0
100
AcDbLine
 10
710.0051332179496
 20
948.5605558073663
 30
0.0
 11
710.0051332179496
 21
968.5605558073662
 31
0.0
  0
LINE
  5
45D5862FBAB58D
330
45D5862FBAB581
100
AcDbEntity
  8
0
 62
     0
100
AcDbLine
 10
711.0051332179497
 20
948.5605558073663
 30
0.0
 11
711.0051332179497
 21
968.5605558073662
 31
0.0
  0
LINE
  5
45D5862FBAB58E
330
45D5862FBAB581
100
AcDbEntity
  8
0
 62
     0
100
AcDbLine
 10
712.0051332179497
 20
948.5605558073663
 30
0.0
 11
712.0051332179497
 21
968.5605558073662
 31
0.0
  0
ENDBLK
  5
45D5862FBAB590
330
45D5862FBAB581
100
AcDbEntity
  8
0
100
AcDbBlockEnd
  0
BLOCK
  5
45D5862FBAB5C7
330
45D5862FBAB591
100
AcDbEntity
  8
0
100
AcDbBlockBegin
  2
*X20
 70
     1
 10
0.0
 20
0.0
 30
0.0
  3
*X20
  1

  0
LINE
  5
45D5862FBAB592
330
45D5862FBAB591
100
AcDbEntity
  8
0
 62
     0
100
AcDbLine
 10
1645.526871370814
 20
923.4141911940156
 30
0.0
 11
1646.526871370814
 21
923.4141911940156
 31
0.0
  0
LINE
  5
45D5862FBAB593
330
45D5862FBAB591
100
AcDbEntity
  8
0
 62
     0
100
AcDbLine
 10
1646.526871370814
 20
923.4141911940156
 30
0.0
 11
1646.892633217949
 21
923.4141911940156
 31
0.0
  0
LINE
  5
45D5862FBAB594
330
45D5862FBAB591
100
AcDbEntity
  8
0
 62
     0
100
AcDbLine
 10
1653.242633217949
 20
923.4141911940156
 30
0.0
 11
1656.417633217949
 21
923.4141911940156
 31
0.0
  0
LINE
  5
45D5862FBAB595
330
45D5862FBAB591
100
AcDbEntity
  8
0
 62
     0
100
AcDbLine
 10
1660.526871370813
 20
926.1638211940157
 30
0.0
 11
1661.180133217949
 21
926.1638211940157
 31
0.0
  0
LINE
  5
45D5862FBAB596
330
45D5862FBAB591
100
AcDbEntity
  8
0
 62
     0
100
AcDbLine
 10
1648.480133217949
 20
926.1638211940157
 30
0.0
 11
1651.655133217949
 21
926.1638211940157
 31
0.0
  0
LINE
  5
45D5862FBAB597
330
45D5862FBAB591
100
AcDbEntity
  8
0
 62
     0
100
AcDbLine
 10
1658.005133217949
 20
926.1638211940157
 30
0.0
 11
1660.526871370813
 21
926.1638211940157
 31
0.0
  0
LINE
  5
45D5862FBAB598
330
45D5862FBAB591
100
AcDbEntity
  8
0
 62
     0
100
AcDbLine
 10
1645.526871370814
 20
928.9134511940156
 30
0.0
 11
1646.526871370814
 21
928.9134511940156
 31
0.0
  0
LINE
  5
45D5862FBAB599
330
45D5862FBAB591
100
AcDbEntity
  8
0
 62
     0
100
AcDbLine
 10
1646.526871370814
 20
928.9134511940156
 30
0.0
 11
1646.892633217949
 21
928.9134511940156
 31
0.0
  0
LINE
  5
45D5862FBAB59A
330
45D5862FBAB591
100
AcDbEntity
  8
0
 62
     0
100
AcDbLine
 10
1653.242633217949
 20
928.9134511940156
 30
0.0
 11
1656.417633217949
 21
928.9134511940156
 31
0.0
  0
LINE
  5
45D5862FBAB59B
330
45D5862FBAB591
100
AcDbEntity
  8
0
 62
     0
100
AcDbLine
 10
1660.526871370813
 20
931.6630811940155
 30
0.0
 11
1661.18013321795
 21
931.6630811940155
 31
0.0
  0
LINE
  5
45D5862FBAB59C
330
45D5862FBAB591
100
AcDbEntity
  8
0
 62
     0
100
AcDbLine
 10
1648.480133217949
 20
931.6630811940155
 30
0.0
 11
1651.655133217949
 21
931.6630811940155
 31
0.0
  0
LINE
  5
45D5862FBAB59D
330
45D5862FBAB591
100
AcDbEntity
  8
0
 62
     0
100
AcDbLine
 10
1658.005133217949
 20
931.6630811940155
 30
0.0
 11
1660.526871370813
 21
931.6630811940155
 31
0.0
  0
LINE
  5
45D5862FBAB59E
330
45D5862FBAB591
100
AcDbEntity
  8
0
 62
     0
100
AcDbLine
 10
1660.526871370813
 20
920.6645611940157
 30
0.0
 11
1661.180133217949
 21
920.6645611940157
 31
0.0
  0
LINE
  5
45D5862FBAB59F
330
45D5862FBAB591
100
AcDbEntity
  8
0
 62
     0
100
AcDbLine
 10
1648.480133217949
 20
920.6645611940157
 30
0.0
 11
1651.655133217949
 21
920.6645611940157
 31
0.0
  0
LINE
  5
45D5862FBAB5A0
330
45D5862FBAB591
100
AcDbEntity
  8
0
 62
     0
100
AcDbLine
 10
1658.005133217949
 20
920.6645611940157
 30
0.0
 11
1660.526871370813
 21
920.6645611940157
 31
0.0
  0
LINE
  5
45D5862FBAB5A1
330
45D5862FBAB591
100
AcDbEntity
  8
0
 62
     0
100
AcDbLine
 10
1645.526871370814
 20
917.9149311940157
 30
0.0
 11
1646.526871370814
 21
917.9149311940157
 31
0.0
  0
LINE
  5
45D5862FBAB5A2
330
45D5862FBAB591
100
AcDbEntity
  8
0
 62
     0
100
AcDbLine
 10
1646.526871370814
 20
917.9149311940157
 30
0.0
 11
1646.892633217949
 21
917.9149311940157
 31
0.0
  0
LINE
  5
45D5862FBAB5A3
330
45D5862FBAB591
100
AcDbEntity
  8
0
 62
     0
100
AcDbLine
 10
1653.242633217949
 20
917.9149311940157
 30
0.0
 11
1656.417633217949
 21
917.9149311940157
 31
0.0
  0
LINE
  5
45D5862FBAB5A4
330
45D5862FBAB591
100
AcDbEntity
  8
0
 62
     0
100
AcDbLine
 10
1660.526871370813
 20
915.1653011940156
 30
0.0
 11
1661.180133217949
 21
915.1653011940156
 31
0.0
  0
LINE
  5
45D5862FBAB5A5
330
45D5862FBAB591
100
AcDbEntity
  8
0
 62
     0
100
AcDbLine
 10
1648.480133217949
 20
915.1653011940156
 30
0.0
 11
1651.655133217949
 21
915.1653011940156
 31
0.0
  0
LINE
  5
45D5862FBAB5A6
330
45D5862FBAB591
100
AcDbEntity
  8
0
 62
     0
100
AcDbLine
 10
1658.005133217949
 20
915.1653011940156
 30
0.0
 11
1660.526871370813
 21
915.1653011940156
 31
0.0
  0
LINE
  5
45D5862FBAB5A7
330
45D5862FBAB591
100
AcDbEntity
  8
0
 62
     0
100
AcDbLine
 10
1658.004925535799
 20
915.1651878588252
 30
0.0
 11
1656.417425535799
 21
917.9148185158403
 31
0.0
  0
LINE
  5
45D5862FBAB5A8
330
45D5862FBAB591
100
AcDbEntity
  8
0
 62
     0
100
AcDbLine
 10
1653.242425535799
 20
923.4140798298716
 30
0.0
 11
1651.654925535799
 21
926.1637104868873
 31
0.0
  0
LINE
  5
45D5862FBAB5A9
330
45D5862FBAB591
100
AcDbEntity
  8
0
 62
     0
100
AcDbLine
 10
1648.479925535799
 20
931.6629718009183
 30
0.0
 11
1647.418182829459
 21
933.5019641128644
 31
0.0
  0
LINE
  5
45D5862FBAB5AA
330
45D5862FBAB591
100
AcDbEntity
  8
0
 62
     0
100
AcDbLine
 10
1653.242426104791
 20
917.9148188443484
 30
0.0
 11
1651.654926104791
 21
920.6644495013639
 31
0.0
  0
LINE
  5
45D5862FBAB5AB
330
45D5862FBAB591
100
AcDbEntity
  8
0
 62
     0
100
AcDbLine
 10
1648.479926104791
 20
926.1637108153951
 30
0.0
 11
1646.892426104791
 21
928.9133414724107
 31
0.0
  0
LINE
  5
45D5862FBAB5AC
330
45D5862FBAB591
100
AcDbEntity
  8
0
 62
     0
100
AcDbLine
 10
1652.615189730564
 20
913.5019641128646
 30
0.0
 11
1651.654926673784
 21
915.1651885158406
 31
0.0
  0
LINE
  5
45D5862FBAB5AD
330
45D5862FBAB591
100
AcDbEntity
  8
0
 62
     0
100
AcDbLine
 10
1648.479926673784
 20
920.6644498298718
 30
0.0
 11
1646.892426673783
 21
923.4140804868872
 31
0.0
  0
LINE
  5
45D5862FBAB5AE
330
45D5862FBAB591
100
AcDbEntity
  8
0
 62
     0
100
AcDbLine
 10
1648.479927242776
 20
915.1651888443485
 30
0.0
 11
1646.892427242776
 21
917.914819501364
 31
0.0
  0
LINE
  5
45D5862FBAB5AF
330
45D5862FBAB591
100
AcDbEntity
  8
0
 62
     0
100
AcDbLine
 10
1661.526871370814
 20
914.5642587310742
 30
0.0
 11
1661.179924966807
 21
915.1651875303171
 31
0.0
  0
LINE
  5
45D5862FBAB5B0
330
45D5862FBAB591
100
AcDbEntity
  8
0
 62
     0
100
AcDbLine
 10
1658.004924966807
 20
920.6644488443485
 30
0.0
 11
1656.417424966807
 21
923.414079501364
 31
0.0
  0
LINE
  5
45D5862FBAB5B1
330
45D5862FBAB591
100
AcDbEntity
  8
0
 62
     0
100
AcDbLine
 10
1653.242424966807
 20
928.9133408153952
 30
0.0
 11
1651.654924966807
 21
931.6629714724108
 31
0.0
  0
LINE
  5
45D5862FBAB5B2
330
45D5862FBAB591
100
AcDbEntity
  8
0
 62
     0
100
AcDbLine
 10
1661.526871370813
 20
920.0635187310744
 30
0.0
 11
1661.179924397814
 21
920.6644485158406
 31
0.0
  0
LINE
  5
45D5862FBAB5B3
330
45D5862FBAB591
100
AcDbEntity
  8
0
 62
     0
100
AcDbLine
 10
1658.004924397815
 20
926.1637098298718
 30
0.0
 11
1656.417424397814
 21
928.9133404868874
 31
0.0
  0
LINE
  5
45D5862FBAB5B4
330
45D5862FBAB591
100
AcDbEntity
  8
0
 62
     0
100
AcDbLine
 10
1661.526871370813
 20
925.5627787310743
 30
0.0
 11
1661.179923828822
 21
926.1637095013639
 31
0.0
  0
LINE
  5
45D5862FBAB5B5
330
45D5862FBAB591
100
AcDbEntity
  8
0
 62
     0
100
AcDbLine
 10
1658.004923828823
 20
931.6629708153952
 30
0.0
 11
1656.943180553491
 21
933.5019641128644
 31
0.0
  0
LINE
  5
45D5862FBAB5B6
330
45D5862FBAB591
100
AcDbEntity
  8
0
 62
     0
100
AcDbLine
 10
1661.526871370813
 20
931.0620387310747
 30
0.0
 11
1661.17992325983
 21
931.6629704868871
 31
0.0
  0
LINE
  5
45D5862FBAB5B7
330
45D5862FBAB591
100
AcDbEntity
  8
0
 62
     0
100
AcDbLine
 10
1647.519534266109
 20
913.5019641128646
 30
0.0
 11
1648.479932932697
 21
915.165423398915
 31
0.0
  0
LINE
  5
45D5862FBAB5B8
330
45D5862FBAB591
100
AcDbEntity
  8
0
 62
     0
100
AcDbLine
 10
1651.654932932697
 20
920.6646847129462
 30
0.0
 11
1653.242432932697
 21
923.4143153699617
 31
0.0
  0
LINE
  5
45D5862FBAB5B9
330
45D5862FBAB591
100
AcDbEntity
  8
0
 62
     0
100
AcDbLine
 10
1656.417432932697
 20
928.913576683993
 30
0.0
 11
1658.004932932697
 21
931.6632073410087
 31
0.0
  0
LINE
  5
45D5862FBAB5BA
330
45D5862FBAB591
100
AcDbEntity
  8
0
 62
     0
100
AcDbLine
 10
1646.892433501689
 20
917.9150537274232
 30
0.0
 11
1648.479933501689
 21
920.6646843844389
 31
0.0
  0
LINE
  5
45D5862FBAB5BB
330
45D5862FBAB591
100
AcDbEntity
  8
0
 62
     0
100
AcDbLine
 10
1651.654933501689
 20
926.1639456984699
 30
0.0
 11
1653.242433501689
 21
928.9135763554853
 31
0.0
  0
LINE
  5
45D5862FBAB5BC
330
45D5862FBAB591
100
AcDbEntity
  8
0
 62
     0
100
AcDbLine
 10
1646.892434070681
 20
923.414314712946
 30
0.0
 11
1648.479934070681
 21
926.1639453699617
 31
0.0
  0
LINE
  5
45D5862FBAB5BD
330
45D5862FBAB591
100
AcDbEntity
  8
0
 62
     0
100
AcDbLine
 10
1651.654934070681
 20
931.6632066839927
 30
0.0
 11
1652.716541167215
 21
933.5019641128647
 31
0.0
  0
LINE
  5
45D5862FBAB5BE
330
45D5862FBAB591
100
AcDbEntity
  8
0
 62
     0
100
AcDbLine
 10
1646.892434639674
 20
928.9135756984697
 30
0.0
 11
1648.479934639674
 21
931.6632063554857
 31
0.0
  0
LINE
  5
45D5862FBAB5BF
330
45D5862FBAB591
100
AcDbEntity
  8
0
 62
     0
100
AcDbLine
 10
1651.654932363705
 20
915.1654237274232
 30
0.0
 11
1653.242432363705
 21
917.9150543844388
 31
0.0
  0
LINE
  5
45D5862FBAB5C0
330
45D5862FBAB591
100
AcDbEntity
  8
0
 62
     0
100
AcDbLine
 10
1656.417432363705
 20
923.4143156984698
 30
0.0
 11
1658.004932363705
 21
926.1639463554857
 31
0.0
  0
LINE
  5
45D5862FBAB5C1
330
45D5862FBAB591
100
AcDbEntity
  8
0
 62
     0
100
AcDbLine
 10
1661.179932363705
 20
931.6632076695166
 30
0.0
 11
1661.526871370813
 21
932.2641236569564
 31
0.0
  0
LINE
  5
45D5862FBAB5C2
330
45D5862FBAB591
100
AcDbEntity
  8
0
 62
     0
100
AcDbLine
 10
1656.417431794712
 20
917.9150547129463
 30
0.0
 11
1658.004931794712
 21
920.664685369962
 31
0.0
  0
LINE
  5
45D5862FBAB5C3
330
45D5862FBAB591
100
AcDbEntity
  8
0
 62
     0
100
AcDbLine
 10
1661.179931794713
 20
926.1639466839934
 30
0.0
 11
1661.526871370814
 21
926.7648636569566
 31
0.0
  0
LINE
  5
45D5862FBAB5C4
330
45D5862FBAB591
100
AcDbEntity
  8
0
 62
     0
100
AcDbLine
 10
1657.044531990141
 20
913.5019641128646
 30
0.0
 11
1658.00493122572
 21
915.1654243844388
 31
0.0
  0
LINE
  5
45D5862FBAB5C5
330
45D5862FBAB591
100
AcDbEntity
  8
0
 62
     0
100
AcDbLine
 10
1661.17993122572
 20
920.6646856984697
 30
0.0
 11
1661.526871370814
 21
921.2656036569562
 31
0.0
  0
LINE
  5
45D5862FBAB5C6
330
45D5862FBAB591
100
AcDbEntity
  8
0
 62
     0
100
AcDbLine
 10
1661.179930656728
 20
915.1654247129464
 30
0.0
 11
1661.526871370814
 21
915.7663436569572
 31
0.0
  0
ENDBLK
  5
45D5862FBAB5C8
330
45D5862FBAB591
100
AcDbEntity
  8
0
100
AcDbBlockEnd
  0
BLOCK
  5
45D5862FBAB5DD
330
45D5862FBAB5C9
100
AcDbEntity
  8
0
100
AcDbBlockBegin
  2
*X21
 70
     1
 10
0.0
 20
0.0
 30
0.0
  3
*X21
  1

  0
LINE
  5
45D5862FBAB5CA
330
45D5862FBAB5C9
100
AcDbEntity
  8
0
 62
     0
100
AcDbLine
 10
750.0
 20
964.8741468924553
 30
0.0
 11
750.0
 21
984.8741468924552
 31
0.0
  0
LINE
  5
45D5862FBAB5CB
330
45D5862FBAB5C9
100
AcDbEntity
  8
0
 62
     0
100
AcDbLine
 10
749.0
 20
964.8741468924553
 30
0.0
 11
749.0
 21
984.8741468924552
 31
0.0
  0
LINE
  5
45D5862FBAB5CC
330
45D5862FBAB5C9
100
AcDbEntity
  8
0
 62
     0
100
AcDbLine
 10
748.0
 20
964.8741468924553
 30
0.0
 11
748.0
 21
984.8741468924552
 31
0.0
  0
LINE
  5
45D5862FBAB5CD
330
45D5862FBAB5C9
100
AcDbEntity
  8
0
 62
     0
100
AcDbLine
 10
747.0
 20
964.8741468924553
 30
0.0
 11
747.0
 21
984.8741468924552
 31
0.0
  0
LINE
  5
45D5862FBAB5CE
330
45D5862FBAB5C9
100
AcDbEntity
  8
0
 62
     0
100
AcDbLine
 10
746.0
 20
964.8741468924553
 30
0.0
 11
746.0
 21
974.7482937853012
 31
0.0
  0
LINE
  5
45D5862FBAB5CF
330
45D5862FBAB5C9
100
AcDbEntity
  8
0
 62
     0
100
AcDbLine
 10
746.0
 20
974.9999999996092
 30
0.0
 11
746.0
 21
984.8741468924552
 31
0.0
  0
LINE
  5
45D5862FBAB5D0
330
45D5862FBAB5C9
100
AcDbEntity
  8
0
 62
     0
100
AcDbLine
 10
745.0
 20
964.8741468924553
 30
0.0
 11
745.0
 21
969.030520648157
 31
0.0
  0
LINE
  5
45D5862FBAB5D1
330
45D5862FBAB5C9
100
AcDbEntity
  8
0
 62
     0
100
AcDbLine
 10
745.0
 20
980.7177731367531
 30
0.0
 11
745.0
 21
984.8741468924552
 31
0.0
  0
LINE
  5
45D5862FBAB5D2
330
45D5862FBAB5C9
100
AcDbEntity
  8
0
 62
     0
100
AcDbLine
 10
744.0
 20
964.8741468924553
 30
0.0
 11
744.0
 21
966.732887999537
 31
0.0
  0
LINE
  5
45D5862FBAB5D3
330
45D5862FBAB5C9
100
AcDbEntity
  8
0
 62
     0
100
AcDbLine
 10
744.0
 20
983.0154057853732
 30
0.0
 11
744.0
 21
984.8741468924552
 31
0.0
  0
LINE
  5
45D5862FBAB5D4
330
45D5862FBAB5C9
100
AcDbEntity
  8
0
 62
     0
100
AcDbLine
 10
743.0
 20
964.8741468924553
 30
0.0
 11
743.0
 21
965.0551741844786
 31
0.0
  0
LINE
  5
45D5862FBAB5D5
330
45D5862FBAB5C9
100
AcDbEntity
  8
0
 62
     0
100
AcDbLine
 10
743.0
 20
984.6931196004318
 30
0.0
 11
743.0
 21
984.8741468924552
 31
0.0
  0
LINE
  5
45D5862FBAB5D6
330
45D5862FBAB5C9
100
AcDbEntity
  8
0
 62
     0
100
AcDbLine
 10
751.0
 20
964.8741468924553
 30
0.0
 11
751.0
 21
984.8741468924552
 31
0.0
  0
LINE
  5
45D5862FBAB5D7
330
45D5862FBAB5C9
100
AcDbEntity
  8
0
 62
     0
100
AcDbLine
 10
752.0
 20
964.8741468924553
 30
0.0
 11
752.0
 21
984.8741468924552
 31
0.0
  0
LINE
  5
45D5862FBAB5D8
330
45D5862FBAB5C9
100
AcDbEntity
  8
0
 62
     0
100
AcDbLine
 10
753.0
 20
964.8741468924553
 30
0.0
 11
753.0
 21
984.8741468924554
 31
0.0
  0
LINE
  5
45D5862FBAB5D9
330
45D5862FBAB5C9
100
AcDbEntity
  8
0
 62
     0
100
AcDbLine
 10
754.0
 20
964.8741468924553
 30
0.0
 11
754.0
 21
984.8741468924554
 31
0.0
  0
LINE
  5
45D5862FBAB5DA
330
45D5862FBAB5C9
100
AcDbEntity
  8
0
 62
     0
100
AcDbLine
 10
755.0
 20
964.8741468924553
 30
0.0
 11
755.0
 21
984.8741468924554
 31
0.0
  0
LINE
  5
45D5862FBAB5DB
330
45D5862FBAB5C9
100
AcDbEntity
  8
0
 62
     0
100
AcDbLine
 10
756.0
 20
964.8741468924553
 30
0.0
 11
756.0
 21
984.8741468924554
 31
0.0
  0
LINE
  5
45D5862FBAB5DC
330
45D5862FBAB5C9
100
AcDbEntity
  8
0
 62
     0
100
AcDbLine
 10
757.0
 20
964.8741468924553
 30
0.0
 11
757.0
 21
984.8741468924554
 31
0.0
  0
ENDBLK
  5
45D5862FBAB5DE
330
45D5862FBAB5C9
100
AcDbEntity
  8
0
100
AcDbBlockEnd
  0
BLOCK
  5
45D5862FBB0630
330
45D5862FBB0626
100
AcDbEntity
  8
0
100
AcDbBlockBegin
  2
*D22
 70
     1
 10
0.0
 20
0.0
 30
0.0
  3
*D22
  1

  0
LINE
  5
45D5862FBB1EF0
330
45D5862FBB0626
100
AcDbEntity
  8
SCALE
370
    -2
100
AcDbLine
 10
15566.1274055916
 20
-6739.502372018048
 30
0.0
 11
15566.1274055916
 21
-6663.471637053198
 31
0.0
  0
LINE
  5
45D5862FBB1EF1
330
45D5862FBB0626
100
AcDbEntity
  8
SCALE
370
    -2
100
AcDbLine
 10
15774.3167009647
 20
-6739.502372018048
 30
0.0
 11
15774.3167009647
 21
-6663.471637053198
 31
0.0
  0
LINE
  5
45D5862FBB1EF2
330
45D5862FBB0626
100
AcDbEntity
  8
SCALE
370
    -2
100
AcDbLine
 10
15571.1274055916
 20
-6668.471637053198
 30
0.0
 11
15769.3167009647
 21
-6668.471637053198
 31
0.0
  0
INSERT
  5
45D5862FBB1EF3
330
45D5862FBB0626
100
AcDbEntity
  8
SCALE
370
    -2
100
AcDbBlockReference
  2
_DOT
 10
15566.1274055916
 20
-6668.471637053198
 30
0.0
 41
5.0
 42
5.0
 43
5.0
 50
180.0
  0
INSERT
  5
45D5862FBB1EF4
330
45D5862FBB0626
100
AcDbEntity
  8
SCALE
370
    -2
100
AcDbBlockReference
  2
_DOT
 10
15774.3167009647
 20
-6668.471637053198
 30
0.0
 41
5.0
 42
5.0
 43
5.0
  0
MTEXT
  5
45D5862FBB1EF5
330
45D5862FBB0626
100
AcDbEntity
  8
SCALE
100
AcDbMText
 10
15670.22205327815
 20
-6644.471637053197
 30
0.0
 40
23.99999999999999
 41
0.0
 71
     5
 72
     1
  1
\A1;※
 73
     1
 44
1.0
1001
ACAD
1000
MTEXTBEGIN
1070
    73
1070
     1
1070
    44
1040
1.0
1070
    74
1070
     0
1000
MTEXTEND
  0
POINT
  5
45D5862FBB1EF6
330
45D5862FBB0626
100
AcDbEntity
  8
DEFPOINTS
 62
     0
100
AcDbPoint
 10
15566.1274055916
 20
-6749.502372018048
 30
0.0
  0
POINT
  5
45D5862FBB1EF7
330
45D5862FBB0626
100
AcDbEntity
  8
DEFPOINTS
 62
     0
100
AcDbPoint
 10
15774.3167009647
 20
-6749.502372018048
 30
0.0
  0
POINT
  5
45D5862FBB1EF8
330
45D5862FBB0626
100
AcDbEntity
  8
DEFPOINTS
 62
     0
100
AcDbPoint
 10
15774.3167009647
 20
-6668.471637053198
 30
0.0
  0
ENDBLK
  5
45D5862FBB0631
330
45D5862FBB0626
100
AcDbEntity
  8
0
100
AcDbBlockEnd
  0
BLOCK
  5
45D5862FBB0654
330
45D5862FBB064A
100
AcDbEntity
  8
0
100
AcDbBlockBegin
  2
*D23
 70
     1
 10
0.0
 20
0.0
 30
0.0
  3
*D23
  1

  0
LINE
  5
45D5862FBB0813
330
45D5862FBB064A
100
AcDbEntity
  8
SCALE
370
    -2
100
AcDbLine
 10
14578.83623962748
 20
-6737.428218414946
 30
0.0
 11
14578.83623962748
 21
-6661.397483450096
 31
0.0
  0
LINE
  5
45D5862FBB0814
330
45D5862FBB064A
100
AcDbEntity
  8
SCALE
370
    -2
100
AcDbLine
 10
14787.02553500058
 20
-6737.428218414946
 30
0.0
 11
14787.02553500058
 21
-6661.397483450096
 31
0.0
  0
LINE
  5
45D5862FBB0815
330
45D5862FBB064A
100
AcDbEntity
  8
SCALE
370
    -2
100
AcDbLine
 10
14583.83623962748
 20
-6666.397483450097
 30
0.0
 11
14782.02553500058
 21
-6666.397483450097
 31
0.0
  0
INSERT
  5
45D5862FBB0816
330
45D5862FBB064A
100
AcDbEntity
  8
SCALE
370
    -2
100
AcDbBlockReference
  2
_DOT
 10
14578.83623962748
 20
-6666.397483450097
 30
0.0
 41
5.0
 42
5.0
 43
5.0
 50
180.0
  0
INSERT
  5
45D5862FBB0817
330
45D5862FBB064A
100
AcDbEntity
  8
SCALE
370
    -2
100
AcDbBlockReference
  2
_DOT
 10
14787.02553500058
 20
-6666.397483450097
 30
0.0
 41
5.0
 42
5.0
 43
5.0
  0
MTEXT
  5
45D5862FBB0818
330
45D5862FBB064A
100
AcDbEntity
  8
SCALE
100
AcDbMText
 10
14682.93088731403
 20
-6642.397483450096
 30
0.0
 40
24.0
 41
0.0
 71
     5
 72
     1
  1
\A1;※
 73
     1
 44
1.0
1001
ACAD
1000
MTEXTBEGIN
1070
    73
1070
     1
1070
    44
1040
1.0
1070
    74
1070
     0
1000
MTEXTEND
  0
POINT
  5
45D5862FBB0819
330
45D5862FBB064A
100
AcDbEntity
  8
DEFPOINTS
 62
     0
100
AcDbPoint
 10
14578.83623962748
 20
-6747.428218414947
 30
0.0
  0
POINT
  5
45D5862FBB081A
330
45D5862FBB064A
100
AcDbEntity
  8
DEFPOINTS
 62
     0
100
AcDbPoint
 10
14787.02553500058
 20
-6747.428218414947
 30
0.0
  0
POINT
  5
45D5862FBB081B
330
45D5862FBB064A
100
AcDbEntity
  8
DEFPOINTS
 62
     0
100
AcDbPoint
 10
14787.02553500058
 20
-6666.397483450097
 30
0.0
  0
ENDBLK
  5
45D5862FBB0655
330
45D5862FBB064A
100
AcDbEntity
  8
0
100
AcDbBlockEnd
  0
BLOCK
  5
45D5862FBB161A
330
45D5862FBB1610
100
AcDbEntity
  8
0
100
AcDbBlockBegin
  2
*D24
 70
     1
 10
0.0
 20
0.0
 30
0.0
  3
*D24
  1

  0
LINE
  5
45D5862FBB1DBA
330
45D5862FBB1610
100
AcDbEntity
  8
TXT1
370
    -2
100
AcDbLine
 10
14766.08379800058
 20
-6826.403434609403
 30
0.0
 11
14697.33442575683
 21
-6826.403434609403
 31
0.0
  0
LINE
  5
45D5862FBB1DBB
330
45D5862FBB1610
100
AcDbEntity
  8
TXT1
370
    -2
100
AcDbLine
 10
14766.08379800058
 20
-6926.403434609404
 30
0.0
 11
14697.33442575683
 21
-6926.403434609404
 31
0.0
  0
LINE
  5
45D5862FBB1DBC
330
45D5862FBB1610
100
AcDbEntity
  8
TXT1
370
    -2
100
AcDbLine
 10
14702.33442575683
 20
-6831.403434609405
 30
0.0
 11
14702.33442575683
 21
-6921.403434609404
 31
0.0
  0
INSERT
  5
45D5862FBB1DBD
330
45D5862FBB1610
100
AcDbEntity
  8
TXT1
370
    -2
100
AcDbBlockReference
  2
DOT
 10
14702.33442575683
 20
-6826.403434609403
 30
0.0
 41
5.0
 42
5.0
 43
5.0
 50
90.0
  0
INSERT
  5
45D5862FBB1DBE
330
45D5862FBB1610
100
AcDbEntity
  8
TXT1
370
    -2
100
AcDbBlockReference
  2
DOT
 10
14702.33442575683
 20
-6926.403434609404
 30
0.0
 41
5.0
 42
5.0
 43
5.0
 50
270.0
  0
MTEXT
  5
45D5862FBB1DBF
330
45D5862FBB1610
100
AcDbEntity
  8
TXT1
100
AcDbMText
 10
14678.33442575684
 20
-6876.4034346094
 30
0.0
 40
23.99999999999999
 41
0.0
 71
     5
 72
     1
  1
\A1;100
 11
0.0000000000000001
 21
1.0
 31
0.0
 73
     1
 44
1.0
1001
ACAD
1000
MTEXTBEGIN
1070
    73
1070
     1
1070
    44
1040
1.0
1070
    74
1070
     0
1000
MTEXTEND
  0
POINT
  5
45D5862FBB1DC0
330
45D5862FBB1610
100
AcDbEntity
  8
DEFPOINTS
 62
     0
100
AcDbPoint
 10
14776.08379800058
 20
-6826.403434609403
 30
0.0
  0
POINT
  5
45D5862FBB1DC1
330
45D5862FBB1610
100
AcDbEntity
  8
DEFPOINTS
 62
     0
100
AcDbPoint
 10
14776.08379800058
 20
-6926.403434609404
 30
0.0
  0
POINT
  5
45D5862FBB1DC2
330
45D5862FBB1610
100
AcDbEntity
  8
DEFPOINTS
 62
     0
100
AcDbPoint
 10
14702.33442575683
 20
-6926.403434609404
 30
0.0
  0
ENDBLK
  5
45D5862FBB161B
330
45D5862FBB1610
100
AcDbEntity
  8
0
100
AcDbBlockEnd
  0
BLOCK
  5
45D5862FBB1634
330
45D5862FBB162A
100
AcDbEntity
  8
0
100
AcDbBlockBegin
  2
*D25
 70
     1
 10
0.0
 20
0.0
 30
0.0
  3
*D25
  1

  0
LINE
  5
45D5862FBB1F93
330
45D5862FBB162A
100
AcDbEntity
  8
TXT1
370
    -2
100
AcDbLine
 10
14776.88379800058
 20
-6806.403434609404
 30
0.0
 11
14697.33442575683
 21
-6806.403434609404
 31
0.0
  0
LINE
  5
45D5862FBB1F94
330
45D5862FBB162A
100
AcDbEntity
  8
TXT1
370
    -2
100
AcDbLine
 10
14776.88379800058
 20
-6826.403434609403
 30
0.0
 11
14697.33442575683
 21
-6826.403434609403
 31
0.0
  0
LINE
  5
45D5862FBB1F95
330
45D5862FBB162A
100
AcDbEntity
  8
TXT1
370
    -2
100
AcDbLine
 10
14702.33442575683
 20
-6811.403434609403
 30
0.0
 11
14702.33442575683
 21
-6821.403434609404
 31
0.0
  0
MTEXT
  5
45D5862FBB1F96
330
45D5862FBB162A
100
AcDbEntity
  8
TXT1
100
AcDbMText
 10
14677.83442575683
 20
-6816.4034346094
 30
0.0
 40
23.99999999999999
 41
0.0
 71
     5
 72
     1
  1
\A1;20
 11
0.0000000000000001
 21
1.0
 31
0.0
 73
     1
 44
1.0
1001
ACAD
1000
MTEXTBEGIN
1070
    73
1070
     1
1070
    44
1040
1.0
1070
    74
1070
     0
1000
MTEXTEND
  0
INSERT
  5
45D5862FBB1F97
330
45D5862FBB162A
100
AcDbEntity
  8
TXT1
370
    -2
100
AcDbBlockReference
  2
DOT
 10
14702.33442575683
 20
-6806.403434609404
 30
0.0
 41
5.0
 42
5.0
 43
5.0
 50
90.0
  0
INSERT
  5
45D5862FBB1F98
330
45D5862FBB162A
100
AcDbEntity
  8
TXT1
370
    -2
100
AcDbBlockReference
  2
DOT
 10
14702.33442575683
 20
-6826.403434609403
 30
0.0
 41
5.0
 42
5.0
 43
5.0
 50
270.0
  0
POINT
  5
45D5862FBB1F99
330
45D5862FBB162A
100
AcDbEntity
  8
DEFPOINTS
 62
     0
100
AcDbPoint
 10
14786.88379800058
 20
-6806.403434609404
 30
0.0
  0
POINT
  5
45D5862FBB1F9A
330
45D5862FBB162A
100
AcDbEntity
  8
DEFPOINTS
 62
     0
100
AcDbPoint
 10
14786.88379800058
 20
-6826.403434609403
 30
0.0
  0
POINT
  5
45D5862FBB1F9B
330
45D5862FBB162A
100
AcDbEntity
  8
DEFPOINTS
 62
     0
100
AcDbPoint
 10
14702.33442575683
 20
-6826.403434609403
 30
0.0
  0
ENDBLK
  5
45D5862FBB1635
330
45D5862FBB162A
100
AcDbEntity
  8
0
100
AcDbBlockEnd
  0
BLOCK
  5
45D5862FBB1840
330
45D5862FBB183F
100
AcDbEntity
  8
0
100
AcDbBlockBegin
  2
DOT1
 70
     0
 10
0.0
 20
0.0
 30
0.0
  3
DOT1
  1

  0
LWPOLYLINE
  5
45D5862FBB1841
330
45D5862FBB183F
100
AcDbEntity
  8
0
 62
     0
100
AcDbPolyline
 90
        2
 70
     1
 43
0.25
 10
-0.125
 20
0.0
 42
1.0
 10
0.125
 20
0.0
 42
1.0
  0
LINE
  5
45D5862FBB1842
330
45D5862FBB183F
100
AcDbEntity
  8
0
 62
     0
100
AcDbLine
 10
-1.0
 20
0.0
 30
0.0
 11
0.0
 21
0.0
 31
0.0
  0
ENDBLK
  5
45D5862FBB1843
330
45D5862FBB183F
100
AcDbEntity
  8
0
100
AcDbBlockEnd
  0
BLOCK
  5
45D5862FBB1845
330
45D5862FBB1844
100
AcDbEntity
  8
0
100
AcDbBlockBegin
  2
*X27
 70
     1
 10
0.0
 20
0.0
 30
0.0
  3
*X27
  1

  0
LINE
  5
45D5862FBB1846
330
45D5862FBB1844
100
AcDbEntity
  8
0
 62
     0
100
AcDbLine
 10
532.9905769999998
 20
914.6514620000001
 30
0.0
 11
536.9905769999998
 21
918.6514619999996
 31
0.0
  0
LINE
  5
45D5862FBB1847
330
45D5862FBB1844
100
AcDbEntity
  8
0
 62
     0
100
AcDbLine
 10
528.500449
 20
914.6514620000001
 30
0.0
 11
532.500449
 21
918.6514619999996
 31
0.0
  0
LINE
  5
45D5862FBB1848
330
45D5862FBB1844
100
AcDbEntity
  8
0
 62
     0
100
AcDbLine
 10
524.010321
 20
914.6514620000001
 30
0.0
 11
528.010321
 21
918.6514619999996
 31
0.0
  0
LINE
  5
45D5862FBB1849
330
45D5862FBB1844
100
AcDbEntity
  8
0
 62
     0
100
AcDbLine
 10
519.5201929999998
 20
914.6514620000001
 30
0.0
 11
523.5201929999998
 21
918.6514619999996
 31
0.0
  0
LINE
  5
45D5862FBB184A
330
45D5862FBB1844
100
AcDbEntity
  8
0
 62
     0
100
AcDbLine
 10
515.030065
 20
914.6514620000001
 30
0.0
 11
519.030065
 21
918.6514619999996
 31
0.0
  0
LINE
  5
45D5862FBB184B
330
45D5862FBB1844
100
AcDbEntity
  8
0
 62
     0
100
AcDbLine
 10
510.5399369999998
 20
914.6514620000001
 30
0.0
 11
514.5399369999998
 21
918.6514619999996
 31
0.0
  0
LINE
  5
45D5862FBB184C
330
45D5862FBB1844
100
AcDbEntity
  8
0
 62
     0
100
AcDbLine
 10
506.049809
 20
914.6514620000001
 30
0.0
 11
510.049809
 21
918.6514619999996
 31
0.0
  0
LINE
  5
45D5862FBB184D
330
45D5862FBB1844
100
AcDbEntity
  8
0
 62
     0
100
AcDbLine
 10
501.5596809999998
 20
914.6514620000001
 30
0.0
 11
505.5596809999998
 21
918.6514619999996
 31
0.0
  0
LINE
  5
45D5862FBB184E
330
45D5862FBB1844
100
AcDbEntity
  8
0
 62
     0
100
AcDbLine
 10
497.6408349999998
 20
915.2227449999999
 30
0.0
 11
501.0695519999998
 21
918.6514619999996
 31
0.0
  0
LINE
  5
45D5862FBB184F
330
45D5862FBB1844
100
AcDbEntity
  8
0
 62
     0
100
AcDbLine
 10
537.4807049999998
 20
914.6514620000001
 30
0.0
 11
541.4807049999998
 21
918.6514619999996
 31
0.0
  0
LINE
  5
45D5862FBB1850
330
45D5862FBB1844
100
AcDbEntity
  8
0
 62
     0
100
AcDbLine
 10
541.9708329999998
 20
914.6514620000001
 30
0.0
 11
545.9708329999998
 21
918.6514619999996
 31
0.0
  0
LINE
  5
45D5862FBB1851
330
45D5862FBB1844
100
AcDbEntity
  8
0
 62
     0
100
AcDbLine
 10
546.460961
 20
914.6514620000001
 30
0.0
 11
550.460961
 21
918.6514619999996
 31
0.0
  0
LINE
  5
45D5862FBB1852
330
45D5862FBB1844
100
AcDbEntity
  8
0
 62
     0
100
AcDbLine
 10
550.9510889999996
 20
914.6514620000001
 30
0.0
 11
554.9510889999996
 21
918.6514619999996
 31
0.0
  0
LINE
  5
45D5862FBB1853
330
45D5862FBB1844
100
AcDbEntity
  8
0
 62
     0
100
AcDbLine
 10
555.4412169999998
 20
914.6514620000001
 30
0.0
 11
559.4412169999998
 21
918.6514619999996
 31
0.0
  0
LINE
  5
45D5862FBB1854
330
45D5862FBB1844
100
AcDbEntity
  8
0
 62
     0
100
AcDbLine
 10
559.9313449999998
 20
914.6514620000001
 30
0.0
 11
563.9313449999997
 21
918.6514619999996
 31
0.0
  0
LINE
  5
45D5862FBB1855
330
45D5862FBB1844
100
AcDbEntity
  8
0
 62
     0
100
AcDbLine
 10
564.4214729999998
 20
914.6514620000001
 30
0.0
 11
566.610603
 21
916.8405919999999
 31
0.0
  0
ENDBLK
  5
45D5862FBB1856
330
45D5862FBB1844
100
AcDbEntity
  8
0
100
AcDbBlockEnd
  0
BLOCK
  5
45D5862FBB1858
330
45D5862FBB1857
100
AcDbEntity
  8
0
100
AcDbBlockBegin
  2
*X28
 70
     1
 10
0.0
 20
0.0
 30
0.0
  3
*X28
  1

  0
LINE
  5
45D5862FBB1859
330
45D5862FBB1857
100
AcDbEntity
  8
0
 62
     0
100
AcDbLine
 10
726.0660839999997
 20
914.6514620000001
 30
0.0
 11
730.0660839999997
 21
918.6514619999996
 31
0.0
  0
LINE
  5
45D5862FBB185A
330
45D5862FBB1857
100
AcDbEntity
  8
0
 62
     0
100
AcDbLine
 10
721.5759559999996
 20
914.6514620000001
 30
0.0
 11
725.5759559999996
 21
918.6514619999996
 31
0.0
  0
LINE
  5
45D5862FBB185B
330
45D5862FBB1857
100
AcDbEntity
  8
0
 62
     0
100
AcDbLine
 10
717.085827
 20
914.6514620000001
 30
0.0
 11
721.085827
 21
918.6514619999996
 31
0.0
  0
LINE
  5
45D5862FBB185C
330
45D5862FBB1857
100
AcDbEntity
  8
0
 62
     0
100
AcDbLine
 10
712.5956989999997
 20
914.6514620000001
 30
0.0
 11
716.5956989999997
 21
918.6514619999996
 31
0.0
  0
LINE
  5
45D5862FBB185D
330
45D5862FBB1857
100
AcDbEntity
  8
0
 62
     0
100
AcDbLine
 10
708.1055709999997
 20
914.6514620000001
 30
0.0
 11
712.1055709999997
 21
918.6514619999996
 31
0.0
  0
LINE
  5
45D5862FBB185E
330
45D5862FBB1857
100
AcDbEntity
  8
0
 62
     0
100
AcDbLine
 10
703.6154429999997
 20
914.6514620000001
 30
0.0
 11
707.6154429999997
 21
918.6514619999996
 31
0.0
  0
LINE
  5
45D5862FBB185F
330
45D5862FBB1857
100
AcDbEntity
  8
0
 62
     0
100
AcDbLine
 10
699.125315
 20
914.6514620000001
 30
0.0
 11
703.125315
 21
918.6514619999996
 31
0.0
  0
LINE
  5
45D5862FBB1860
330
45D5862FBB1857
100
AcDbEntity
  8
0
 62
     0
100
AcDbLine
 10
694.6351869999999
 20
914.6514620000001
 30
0.0
 11
698.635187
 21
918.6514619999996
 31
0.0
  0
LINE
  5
45D5862FBB1861
330
45D5862FBB1857
100
AcDbEntity
  8
0
 62
     0
100
AcDbLine
 10
690.1450589999996
 20
914.6514620000001
 30
0.0
 11
694.1450589999996
 21
918.6514619999996
 31
0.0
  0
LINE
  5
45D5862FBB1862
330
45D5862FBB1857
100
AcDbEntity
  8
0
 62
     0
100
AcDbLine
 10
685.6549309999998
 20
914.6514620000001
 30
0.0
 11
689.6549309999997
 21
918.6514619999996
 31
0.0
  0
LINE
  5
45D5862FBB1863
330
45D5862FBB1857
100
AcDbEntity
  8
0
 62
     0
100
AcDbLine
 10
681.164803
 20
914.6514620000001
 30
0.0
 11
685.1648029999998
 21
918.6514619999996
 31
0.0
  0
LINE
  5
45D5862FBB1864
330
45D5862FBB1857
100
AcDbEntity
  8
0
 62
     0
100
AcDbLine
 10
676.674675
 20
914.6514620000001
 30
0.0
 11
680.674675
 21
918.6514619999996
 31
0.0
  0
LINE
  5
45D5862FBB1865
330
45D5862FBB1857
100
AcDbEntity
  8
0
 62
     0
100
AcDbLine
 10
672.1845469999997
 20
914.6514620000001
 30
0.0
 11
676.1845469999997
 21
918.6514619999996
 31
0.0
  0
LINE
  5
45D5862FBB1866
330
45D5862FBB1857
100
AcDbEntity
  8
0
 62
     0
100
AcDbLine
 10
667.694419
 20
914.6514620000001
 30
0.0
 11
671.694419
 21
918.6514619999996
 31
0.0
  0
LINE
  5
45D5862FBB1867
330
45D5862FBB1857
100
AcDbEntity
  8
0
 62
     0
100
AcDbLine
 10
663.204291
 20
914.6514620000001
 30
0.0
 11
667.204291
 21
918.6514619999996
 31
0.0
  0
LINE
  5
45D5862FBB1868
330
45D5862FBB1857
100
AcDbEntity
  8
0
 62
     0
100
AcDbLine
 10
658.7141629999997
 20
914.6514620000001
 30
0.0
 11
662.7141629999997
 21
918.6514619999996
 31
0.0
  0
LINE
  5
45D5862FBB1869
330
45D5862FBB1857
100
AcDbEntity
  8
0
 62
     0
100
AcDbLine
 10
654.224035
 20
914.6514620000001
 30
0.0
 11
658.2240349999997
 21
918.6514619999996
 31
0.0
  0
LINE
  5
45D5862FBB186A
330
45D5862FBB1857
100
AcDbEntity
  8
0
 62
     0
100
AcDbLine
 10
649.733907
 20
914.6514620000001
 30
0.0
 11
653.733907
 21
918.6514619999996
 31
0.0
  0
LINE
  5
45D5862FBB186B
330
45D5862FBB1857
100
AcDbEntity
  8
0
 62
     0
100
AcDbLine
 10
645.243778
 20
914.6514620000001
 30
0.0
 11
649.243778
 21
918.6514619999996
 31
0.0
  0
LINE
  5
45D5862FBB186C
330
45D5862FBB1857
100
AcDbEntity
  8
0
 62
     0
100
AcDbLine
 10
640.7536499999999
 20
914.6514620000001
 30
0.0
 11
644.75365
 21
918.6514619999996
 31
0.0
  0
LINE
  5
45D5862FBB186D
330
45D5862FBB1857
100
AcDbEntity
  8
0
 62
     0
100
AcDbLine
 10
636.2635219999997
 20
914.6514620000001
 30
0.0
 11
640.2635219999997
 21
918.6514619999996
 31
0.0
  0
LINE
  5
45D5862FBB186E
330
45D5862FBB1857
100
AcDbEntity
  8
0
 62
     0
100
AcDbLine
 10
631.773394
 20
914.6514620000001
 30
0.0
 11
635.7733940000001
 21
918.6514619999996
 31
0.0
  0
LINE
  5
45D5862FBB186F
330
45D5862FBB1857
100
AcDbEntity
  8
0
 62
     0
100
AcDbLine
 10
627.283266
 20
914.6514620000001
 30
0.0
 11
631.283266
 21
918.6514619999996
 31
0.0
  0
LINE
  5
45D5862FBB1870
330
45D5862FBB1857
100
AcDbEntity
  8
0
 62
     0
100
AcDbLine
 10
622.793138
 20
914.6514620000001
 30
0.0
 11
626.793138
 21
918.6514619999996
 31
0.0
  0
LINE
  5
45D5862FBB1871
330
45D5862FBB1857
100
AcDbEntity
  8
0
 62
     0
100
AcDbLine
 10
618.3030099999997
 20
914.6514620000001
 30
0.0
 11
622.3030099999999
 21
918.6514619999996
 31
0.0
  0
LINE
  5
45D5862FBB1872
330
45D5862FBB1857
100
AcDbEntity
  8
0
 62
     0
100
AcDbLine
 10
613.812882
 20
914.6514620000001
 30
0.0
 11
617.812882
 21
918.6514619999996
 31
0.0
  0
LINE
  5
45D5862FBB1873
330
45D5862FBB1857
100
AcDbEntity
  8
0
 62
     0
100
AcDbLine
 10
609.322754
 20
914.6514620000001
 30
0.0
 11
613.322754
 21
918.6514619999996
 31
0.0
  0
LINE
  5
45D5862FBB1874
330
45D5862FBB1857
100
AcDbEntity
  8
0
 62
     0
100
AcDbLine
 10
604.832626
 20
914.6514620000001
 30
0.0
 11
608.832626
 21
918.6514619999996
 31
0.0
  0
LINE
  5
45D5862FBB1875
330
45D5862FBB1857
100
AcDbEntity
  8
0
 62
     0
100
AcDbLine
 10
600.3424980000001
 20
914.6514620000001
 30
0.0
 11
604.3424980000001
 21
918.6514619999996
 31
0.0
  0
LINE
  5
45D5862FBB1876
330
45D5862FBB1857
100
AcDbEntity
  8
0
 62
     0
100
AcDbLine
 10
595.85237
 20
914.6514620000001
 30
0.0
 11
599.85237
 21
918.6514619999996
 31
0.0
  0
LINE
  5
45D5862FBB1877
330
45D5862FBB1857
100
AcDbEntity
  8
0
 62
     0
100
AcDbLine
 10
591.362242
 20
914.6514620000001
 30
0.0
 11
595.362242
 21
918.6514619999996
 31
0.0
  0
LINE
  5
45D5862FBB1878
330
45D5862FBB1857
100
AcDbEntity
  8
0
 62
     0
100
AcDbLine
 10
586.8721139999999
 20
914.6514620000001
 30
0.0
 11
590.8721139999999
 21
918.6514619999996
 31
0.0
  0
LINE
  5
45D5862FBB1879
330
45D5862FBB1857
100
AcDbEntity
  8
0
 62
     0
100
AcDbLine
 10
582.3819859999997
 20
914.6514620000001
 30
0.0
 11
586.3819859999997
 21
918.6514619999996
 31
0.0
  0
LINE
  5
45D5862FBB187A
330
45D5862FBB1857
100
AcDbEntity
  8
0
 62
     0
100
AcDbLine
 10
577.891858
 20
914.6514620000001
 30
0.0
 11
581.891858
 21
918.6514619999996
 31
0.0
  0
LINE
  5
45D5862FBB187B
330
45D5862FBB1857
100
AcDbEntity
  8
0
 62
     0
100
AcDbLine
 10
573.4017299999997
 20
914.6514620000001
 30
0.0
 11
577.4017299999997
 21
918.6514619999996
 31
0.0
  0
LINE
  5
45D5862FBB187C
330
45D5862FBB1857
100
AcDbEntity
  8
0
 62
     0
100
AcDbLine
 10
568.911601
 20
914.6514620000001
 30
0.0
 11
572.911601
 21
918.6514619999996
 31
0.0
  0
LINE
  5
45D5862FBB187D
330
45D5862FBB1857
100
AcDbEntity
  8
0
 62
     0
100
AcDbLine
 10
566.610603
 20
916.8405919999999
 30
0.0
 11
568.4214729999998
 21
918.6514619999996
 31
0.0
  0
LINE
  5
45D5862FBB187E
330
45D5862FBB1857
100
AcDbEntity
  8
0
 62
     0
100
AcDbLine
 10
730.5562119999997
 20
914.6514620000001
 30
0.0
 11
734.5562119999997
 21
918.6514619999996
 31
0.0
  0
LINE
  5
45D5862FBB187F
330
45D5862FBB1857
100
AcDbEntity
  8
0
 62
     0
100
AcDbLine
 10
735.0463399999996
 20
914.6514620000001
 30
0.0
 11
739.0463399999996
 21
918.6514619999996
 31
0.0
  0
LINE
  5
45D5862FBB1880
330
45D5862FBB1857
100
AcDbEntity
  8
0
 62
     0
100
AcDbLine
 10
739.536468
 20
914.6514620000001
 30
0.0
 11
743.536468
 21
918.6514619999996
 31
0.0
  0
LINE
  5
45D5862FBB1881
330
45D5862FBB1857
100
AcDbEntity
  8
0
 62
     0
100
AcDbLine
 10
744.026596
 20
914.6514620000001
 30
0.0
 11
748.026596
 21
918.6514619999996
 31
0.0
  0
LINE
  5
45D5862FBB1882
330
45D5862FBB1857
100
AcDbEntity
  8
0
 62
     0
100
AcDbLine
 10
748.516724
 20
914.6514620000001
 30
0.0
 11
752.516724
 21
918.6514619999996
 31
0.0
  0
LINE
  5
45D5862FBB1883
330
45D5862FBB1857
100
AcDbEntity
  8
0
 62
     0
100
AcDbLine
 10
753.006852
 20
914.6514620000001
 30
0.0
 11
757.0068519999996
 21
918.6514619999996
 31
0.0
  0
LINE
  5
45D5862FBB1884
330
45D5862FBB1857
100
AcDbEntity
  8
0
 62
     0
100
AcDbLine
 10
757.4969799999997
 20
914.6514620000001
 30
0.0
 11
761.4969799999999
 21
918.6514619999996
 31
0.0
  0
LINE
  5
45D5862FBB1885
330
45D5862FBB1857
100
AcDbEntity
  8
0
 62
     0
100
AcDbLine
 10
761.987108
 20
914.6514620000001
 30
0.0
 11
765.987108
 21
918.6514619999996
 31
0.0
  0
LINE
  5
45D5862FBB1886
330
45D5862FBB1857
100
AcDbEntity
  8
0
 62
     0
100
AcDbLine
 10
766.477236
 20
914.6514620000001
 30
0.0
 11
770.477236
 21
918.6514619999996
 31
0.0
  0
LINE
  5
45D5862FBB1887
330
45D5862FBB1857
100
AcDbEntity
  8
0
 62
     0
100
AcDbLine
 10
770.967364
 20
914.6514620000001
 30
0.0
 11
774.967364
 21
918.6514619999996
 31
0.0
  0
LINE
  5
45D5862FBB1888
330
45D5862FBB1857
100
AcDbEntity
  8
0
 62
     0
100
AcDbLine
 10
775.457492
 20
914.6514620000001
 30
0.0
 11
779.457492
 21
918.6514619999996
 31
0.0
  0
LINE
  5
45D5862FBB1889
330
45D5862FBB1857
100
AcDbEntity
  8
0
 62
     0
100
AcDbLine
 10
779.94762
 20
914.6514620000001
 30
0.0
 11
783.94762
 21
918.6514619999996
 31
0.0
  0
LINE
  5
45D5862FBB188A
330
45D5862FBB1857
100
AcDbEntity
  8
0
 62
     0
100
AcDbLine
 10
784.437748
 20
914.6514620000001
 30
0.0
 11
788.437748
 21
918.6514619999996
 31
0.0
  0
LINE
  5
45D5862FBB188B
330
45D5862FBB1857
100
AcDbEntity
  8
0
 62
     0
100
AcDbLine
 10
788.9278759999997
 20
914.6514620000001
 30
0.0
 11
792.9278759999997
 21
918.6514619999996
 31
0.0
  0
LINE
  5
45D5862FBB188C
330
45D5862FBB1857
100
AcDbEntity
  8
0
 62
     0
100
AcDbLine
 10
793.418004
 20
914.6514620000001
 30
0.0
 11
797.418004
 21
918.6514619999996
 31
0.0
  0
LINE
  5
45D5862FBB188D
330
45D5862FBB1857
100
AcDbEntity
  8
0
 62
     0
100
AcDbLine
 10
797.908133
 20
914.6514620000001
 30
0.0
 11
801.908133
 21
918.6514619999996
 31
0.0
  0
LINE
  5
45D5862FBB188E
330
45D5862FBB1857
100
AcDbEntity
  8
0
 62
     0
100
AcDbLine
 10
802.398261
 20
914.6514620000001
 30
0.0
 11
806.398261
 21
918.6514619999996
 31
0.0
  0
LINE
  5
45D5862FBB188F
330
45D5862FBB1857
100
AcDbEntity
  8
0
 62
     0
100
AcDbLine
 10
806.888389
 20
914.6514620000001
 30
0.0
 11
810.8883889999997
 21
918.6514619999996
 31
0.0
  0
LINE
  5
45D5862FBB1890
330
45D5862FBB1857
100
AcDbEntity
  8
0
 62
     0
100
AcDbLine
 10
811.3785169999996
 20
914.6514620000001
 30
0.0
 11
815.378517
 21
918.6514619999996
 31
0.0
  0
LINE
  5
45D5862FBB1891
330
45D5862FBB1857
100
AcDbEntity
  8
0
 62
     0
100
AcDbLine
 10
815.8686450000001
 20
914.6514620000001
 30
0.0
 11
819.868645
 21
918.6514619999996
 31
0.0
  0
LINE
  5
45D5862FBB1892
330
45D5862FBB1857
100
AcDbEntity
  8
0
 62
     0
100
AcDbLine
 10
820.358773
 20
914.6514620000001
 30
0.0
 11
824.3587729999998
 21
918.6514619999996
 31
0.0
  0
LINE
  5
45D5862FBB1893
330
45D5862FBB1857
100
AcDbEntity
  8
0
 62
     0
100
AcDbLine
 10
824.848901
 20
914.6514620000001
 30
0.0
 11
828.8489009999999
 21
918.6514619999996
 31
0.0
  0
LINE
  5
45D5862FBB1894
330
45D5862FBB1857
100
AcDbEntity
  8
0
 62
     0
100
AcDbLine
 10
829.3390289999999
 20
914.6514620000001
 30
0.0
 11
833.339029
 21
918.6514619999996
 31
0.0
  0
LINE
  5
45D5862FBB1895
330
45D5862FBB1857
100
AcDbEntity
  8
0
 62
     0
100
AcDbLine
 10
833.829157
 20
914.6514620000001
 30
0.0
 11
837.829157
 21
918.6514619999996
 31
0.0
  0
LINE
  5
45D5862FBB1896
330
45D5862FBB1857
100
AcDbEntity
  8
0
 62
     0
100
AcDbLine
 10
838.3192849999996
 20
914.6514620000001
 30
0.0
 11
842.3192849999997
 21
918.6514619999996
 31
0.0
  0
LINE
  5
45D5862FBB1897
330
45D5862FBB1857
100
AcDbEntity
  8
0
 62
     0
100
AcDbLine
 10
842.8094130000001
 20
914.6514620000001
 30
0.0
 11
846.809413
 21
918.6514619999996
 31
0.0
  0
LINE
  5
45D5862FBB1898
330
45D5862FBB1857
100
AcDbEntity
  8
0
 62
     0
100
AcDbLine
 10
847.2995409999999
 20
914.6514620000001
 30
0.0
 11
851.299541
 21
918.6514619999996
 31
0.0
  0
LINE
  5
45D5862FBB1899
330
45D5862FBB1857
100
AcDbEntity
  8
0
 62
     0
100
AcDbLine
 10
851.789669
 20
914.6514620000001
 30
0.0
 11
855.7896689999999
 21
918.6514619999996
 31
0.0
  0
LINE
  5
45D5862FBB189A
330
45D5862FBB1857
100
AcDbEntity
  8
0
 62
     0
100
AcDbLine
 10
856.279797
 20
914.6514620000001
 30
0.0
 11
860.2797970000001
 21
918.6514619999996
 31
0.0
  0
LINE
  5
45D5862FBB189B
330
45D5862FBB1857
100
AcDbEntity
  8
0
 62
     0
100
AcDbLine
 10
860.7699249999997
 20
914.6514620000001
 30
0.0
 11
864.769925
 21
918.6514619999996
 31
0.0
  0
LINE
  5
45D5862FBB189C
330
45D5862FBB1857
100
AcDbEntity
  8
0
 62
     0
100
AcDbLine
 10
865.2600529999999
 20
914.6514620000001
 30
0.0
 11
869.2600529999998
 21
918.6514619999996
 31
0.0
  0
LINE
  5
45D5862FBB189D
330
45D5862FBB1857
100
AcDbEntity
  8
0
 62
     0
100
AcDbLine
 10
869.750181
 20
914.6514620000001
 30
0.0
 11
873.7501809999999
 21
918.6514619999996
 31
0.0
  0
LINE
  5
45D5862FBB189E
330
45D5862FBB1857
100
AcDbEntity
  8
0
 62
     0
100
AcDbLine
 10
874.2403099999997
 20
914.6514620000001
 30
0.0
 11
878.2403099999996
 21
918.6514619999996
 31
0.0
  0
LINE
  5
45D5862FBB189F
330
45D5862FBB1857
100
AcDbEntity
  8
0
 62
     0
100
AcDbLine
 10
878.730438
 20
914.6514620000001
 30
0.0
 11
882.7304380000001
 21
918.6514619999996
 31
0.0
  0
LINE
  5
45D5862FBB18A0
330
45D5862FBB1857
100
AcDbEntity
  8
0
 62
     0
100
AcDbLine
 10
883.2205659999997
 20
914.6514620000001
 30
0.0
 11
886.6844679999998
 21
918.1153639999999
 31
0.0
  0
ENDBLK
  5
45D5862FBB18A1
330
45D5862FBB1857
100
AcDbEntity
  8
0
100
AcDbBlockEnd
  0
BLOCK
  5
45D5862FBB1D70
330
45D5862FBB1D66
100
AcDbEntity
  8
0
100
AcDbBlockBegin
  2
*D29
 70
     1
 10
0.0
 20
0.0
 30
0.0
  3
*D29
  1

  0
LINE
  5
45D5862FBB1DD2
330
45D5862FBB1D66
100
AcDbEntity
  8
TXT1
370
    -2
100
AcDbLine
 10
14578.83623962748
 20
-6739.357544021851
 30
0.0
 11
14578.83623962748
 21
-6661.658614719296
 31
0.0
  0
LINE
  5
45D5862FBB1DD3
330
45D5862FBB1D66
100
AcDbEntity
  8
TXT1
370
    -2
100
AcDbLine
 10
14128.83623962748
 20
-6739.357544021853
 30
0.0
 11
14128.83623962748
 21
-6661.658614719296
 31
0.0
  0
LINE
  5
45D5862FBB1DD4
330
45D5862FBB1D66
100
AcDbEntity
  8
TXT1
370
    -2
100
AcDbLine
 10
14573.83623962748
 20
-6666.658614719297
 30
0.0
 11
14133.83623962748
 21
-6666.658614719297
 31
0.0
  0
INSERT
  5
45D5862FBB1DD5
330
45D5862FBB1D66
100
AcDbEntity
  8
TXT1
370
    -2
100
AcDbBlockReference
  2
DOT
 10
14578.83623962748
 20
-6666.658614719297
 30
0.0
 41
5.0
 42
5.0
 43
5.0
  0
INSERT
  5
45D5862FBB1DD6
330
45D5862FBB1D66
100
AcDbEntity
  8
TXT1
370
    -2
100
AcDbBlockReference
  2
DOT
 10
14128.83623962748
 20
-6666.658614719297
 30
0.0
 41
5.0
 42
5.0
 43
5.0
 50
180.0
  0
MTEXT
  5
45D5862FBB1DD7
330
45D5862FBB1D66
100
AcDbEntity
  8
TXT1
100
AcDbMText
 10
14353.83623962748
 20
-6642.658614719296
 30
0.0
 40
23.99999999999999
 41
0.0
 71
     5
 72
     1
  1
\A1;４５０
 73
     1
 44
1.0
1001
ACAD
1000
MTEXTBEGIN
1070
    73
1070
     1
1070
    44
1040
1.0
1070
    74
1070
     0
1000
MTEXTEND
  0
POINT
  5
45D5862FBB1DD8
330
45D5862FBB1D66
100
AcDbEntity
  8
DEFPOINTS
 62
     0
100
AcDbPoint
 10
14578.83623962748
 20
-6749.357544021851
 30
0.0
  0
POINT
  5
45D5862FBB1DD9
330
45D5862FBB1D66
100
AcDbEntity
  8
DEFPOINTS
 62
     0
100
AcDbPoint
 10
14128.83623962748
 20
-6749.357544021854
 30
0.0
  0
POINT
  5
45D5862FBB1DDA
330
45D5862FBB1D66
100
AcDbEntity
  8
DEFPOINTS
 62
     0
100
AcDbPoint
 10
14128.83623962748
 20
-6666.658614719297
 30
0.0
  0
ENDBLK
  5
45D5862FBB1D71
330
45D5862FBB1D66
100
AcDbEntity
  8
0
100
AcDbBlockEnd
  0
BLOCK
  5
45D5862FBB1ECA
330
45D5862FBB1EC0
100
AcDbEntity
  8
0
100
AcDbBlockBegin
  2
*D30
 70
     1
 10
0.0
 20
0.0
 30
0.0
  3
*D30
  1

  0
LINE
  5
45D5862FBB1ECC
330
45D5862FBB1EC0
100
AcDbEntity
  8
TXT1
370
    -2
100
AcDbLine
 10
15566.1274055916
 20
-6741.170566355752
 30
0.0
 11
15566.1274055916
 21
-6663.471637053198
 31
0.0
  0
LINE
  5
45D5862FBB1ECD
330
45D5862FBB1EC0
100
AcDbEntity
  8
TXT1
370
    -2
100
AcDbLine
 10
15116.12740559159
 20
-6741.170566355754
 30
0.0
 11
15116.12740559159
 21
-6663.471637053198
 31
0.0
  0
LINE
  5
45D5862FBB1ECE
330
45D5862FBB1EC0
100
AcDbEntity
  8
TXT1
370
    -2
100
AcDbLine
 10
15561.1274055916
 20
-6668.471637053198
 30
0.0
 11
15121.12740559159
 21
-6668.471637053198
 31
0.0
  0
INSERT
  5
45D5862FBB1ECF
330
45D5862FBB1EC0
100
AcDbEntity
  8
TXT1
370
    -2
100
AcDbBlockReference
  2
DOT
 10
15566.1274055916
 20
-6668.471637053198
 30
0.0
 41
5.0
 42
5.0
 43
5.0
  0
INSERT
  5
45D5862FBB1ED0
330
45D5862FBB1EC0
100
AcDbEntity
  8
TXT1
370
    -2
100
AcDbBlockReference
  2
DOT
 10
15116.12740559159
 20
-6668.471637053198
 30
0.0
 41
5.0
 42
5.0
 43
5.0
 50
180.0
  0
MTEXT
  5
45D5862FBB1ED1
330
45D5862FBB1EC0
100
AcDbEntity
  8
TXT1
100
AcDbMText
 10
15341.12740559159
 20
-6644.471637053197
 30
0.0
 40
23.99999999999999
 41
0.0
 71
     5
 72
     1
  1
\A1;４５０
 73
     1
 44
1.0
1001
ACAD
1000
MTEXTBEGIN
1070
    73
1070
     1
1070
    44
1040
1.0
1070
    74
1070
     0
1000
MTEXTEND
  0
POINT
  5
45D5862FBB1ED2
330
45D5862FBB1EC0
100
AcDbEntity
  8
DEFPOINTS
 62
     0
100
AcDbPoint
 10
15566.1274055916
 20
-6751.170566355752
 30
0.0
  0
POINT
  5
45D5862FBB1ED3
330
45D5862FBB1EC0
100
AcDbEntity
  8
DEFPOINTS
 62
     0
100
AcDbPoint
 10
15116.12740559159
 20
-6751.170566355753
 30
0.0
  0
POINT
  5
45D5862FBB1ED4
330
45D5862FBB1EC0
100
AcDbEntity
  8
DEFPOINTS
 62
     0
100
AcDbPoint
 10
15116.12740559159
 20
-6668.471637053198
 30
0.0
  0
ENDBLK
  5
45D5862FBB1ECB
330
45D5862FBB1EC0
100
AcDbEntity
  8
0
100
AcDbBlockEnd
  0
BLOCK
  5
45D5862FBB1FC1
330
45D5862FBB1FB7
100
AcDbEntity
  8
0
100
AcDbBlockBegin
  2
*D31
 70
     1
 10
0.0
 20
0.0
 30
0.0
  3
*D31
  1

  0
LINE
  5
45D5862FBB1FB8
330
45D5862FBB1FB7
100
AcDbEntity
  8
TXT1
370
    -2
100
AcDbLine
 10
14757.04066719983
 20
-6886.403579891545
 30
0.0
 11
14743.76024986223
 21
-6886.403579891545
 31
0.0
  0
LINE
  5
45D5862FBB1FB9
330
45D5862FBB1FB7
100
AcDbEntity
  8
TXT1
370
    -2
100
AcDbLine
 10
14757.04066719983
 20
-6826.403434609403
 30
0.0
 11
14743.76024986223
 21
-6826.403434609403
 31
0.0
  0
LINE
  5
45D5862FBB1FBA
330
45D5862FBB1FB7
100
AcDbEntity
  8
TXT1
370
    -2
100
AcDbLine
 10
14748.76024986223
 20
-6881.403579891546
 30
0.0
 11
14748.76024986223
 21
-6831.403434609405
 31
0.0
  0
INSERT
  5
45D5862FBB1FBB
330
45D5862FBB1FB7
100
AcDbEntity
  8
TXT1
370
    -2
100
AcDbBlockReference
  2
DOT
 10
14748.76024986223
 20
-6886.403579891545
 30
0.0
 41
5.0
 42
5.0
 43
5.0
 50
270.0
  0
INSERT
  5
45D5862FBB1FBC
330
45D5862FBB1FB7
100
AcDbEntity
  8
TXT1
370
    -2
100
AcDbBlockReference
  2
DOT
 10
14748.76024986223
 20
-6826.403434609403
 30
0.0
 41
5.0
 42
5.0
 43
5.0
 50
90.0
  0
MTEXT
  5
45D5862FBB1FBD
330
45D5862FBB1FB7
100
AcDbEntity
  8
TXT1
100
AcDbMText
 10
14724.76024986223
 20
-6856.403507250471
 30
0.0
 40
23.99999999999999
 41
0.0
 71
     5
 72
     1
  1
\A1;60
 11
0.0000000000000001
 21
1.0
 31
0.0
 73
     1
 44
1.0
1001
ACAD
1000
MTEXTBEGIN
1070
    73
1070
     1
1070
    44
1040
1.0
1070
    74
1070
     0
1000
MTEXTEND
  0
POINT
  5
45D5862FBB1FBE
330
45D5862FBB1FB7
100
AcDbEntity
  8
DEFPOINTS
 62
     0
100
AcDbPoint
 10
14767.04066719983
 20
-6886.403579891545
 30
0.0
  0
POINT
  5
45D5862FBB1FBF
330
45D5862FBB1FB7
100
AcDbEntity
  8
DEFPOINTS
 62
     0
100
AcDbPoint
 10
14767.04066719983
 20
-6826.403434609403
 30
0.0
  0
POINT
  5
45D5862FBB1FC0
330
45D5862FBB1FB7
100
AcDbEntity
  8
DEFPOINTS
 62
     0
100
AcDbPoint
 10
14748.76024986223
 20
-6826.403434609403
 30
0.0
  0
ENDBLK
  5
45D5862FBB1FC2
330
45D5862FBB1FB7
100
AcDbEntity
  8
0
100
AcDbBlockEnd
  0
BLOCK
  5
45D5862FBB1FD0
330
45D5862FBB1FC4
100
AcDbEntity
  8
0
100
AcDbBlockBegin
  2
*D32
 70
     1
 10
0.0
 20
0.0
 30
0.0
  3
*D32
  1

  0
LINE
  5
45D5862FBB1FC5
330
45D5862FBB1FC4
100
AcDbEntity
  8
TXT1
370
    -2
100
AcDbLine
 10
14786.88379800058
 20
-6796.407053693039
 30
0.0
 11
14786.88379800058
 21
-6772.14173456532
 31
0.0
  0
LINE
  5
45D5862FBB1FC6
330
45D5862FBB1FC4
100
AcDbEntity
  8
TXT1
370
    -2
100
AcDbLine
 10
14801.88379800058
 20
-6796.403434609404
 30
0.0
 11
14801.88379800058
 21
-6772.14173456532
 31
0.0
  0
LINE
  5
45D5862FBB1FC7
330
45D5862FBB1FC4
100
AcDbEntity
  8
TXT1
370
    -2
100
AcDbLine
 10
14781.88379800058
 20
-6777.14173456532
 30
0.0
 11
14776.88379800058
 21
-6777.14173456532
 31
0.0
  0
LINE
  5
45D5862FBB1FC8
330
45D5862FBB1FC4
100
AcDbEntity
  8
TXT1
370
    -2
100
AcDbLine
 10
14806.88379800058
 20
-6777.14173456532
 30
0.0
 11
14811.88379800058
 21
-6777.14173456532
 31
0.0
  0
MTEXT
  5
45D5862FBB1FC9
330
45D5862FBB1FC4
100
AcDbEntity
  8
TXT1
100
AcDbMText
 10
14794.38379800058
 20
-6752.64173456532
 30
0.0
 40
23.99999999999999
 41
0.0
 71
     5
 72
     1
  1
\A1;15
 73
     1
 44
1.0
1001
ACAD
1000
MTEXTBEGIN
1070
    73
1070
     1
1070
    44
1040
1.0
1070
    74
1070
     0
1000
MTEXTEND
  0
LINE
  5
45D5862FBB1FCA
330
45D5862FBB1FC4
100
AcDbEntity
  8
TXT1
370
    -2
100
AcDbLine
 10
14786.88379800058
 20
-6777.14173456532
 30
0.0
 11
14801.88379800058
 21
-6777.14173456532
 31
0.0
  0
INSERT
  5
45D5862FBB1FCB
330
45D5862FBB1FC4
100
AcDbEntity
  8
TXT1
370
    -2
100
AcDbBlockReference
  2
DOT
 10
14786.88379800058
 20
-6777.14173456532
 30
0.0
 41
5.0
 42
5.0
 43
5.0
  0
INSERT
  5
45D5862FBB1FCC
330
45D5862FBB1FC4
100
AcDbEntity
  8
TXT1
370
    -2
100
AcDbBlockReference
  2
DOT
 10
14801.88379800058
 20
-6777.14173456532
 30
0.0
 41
5.0
 42
5.0
 43
5.0
 50
180.0
  0
POINT
  5
45D5862FBB1FCD
330
45D5862FBB1FC4
100
AcDbEntity
  8
DEFPOINTS
 62
     0
100
AcDbPoint
 10
14786.88379800058
 20
-6806.40705369304
 30
0.0
  0
POINT
  5
45D5862FBB1FCE
330
45D5862FBB1FC4
100
AcDbEntity
  8
DEFPOINTS
 62
     0
100
AcDbPoint
 10
14801.88379800058
 20
-6806.403434609404
 30
0.0
  0
POINT
  5
45D5862FBB1FCF
330
45D5862FBB1FC4
100
AcDbEntity
  8
DEFPOINTS
 62
     0
100
AcDbPoint
 10
14801.88379800058
 20
-6777.14173456532
 30
0.0
  0
ENDBLK
  5
45D5862FBB1FD1
330
45D5862FBB1FC4
100
AcDbEntity
  8
0
100
AcDbBlockEnd
  0
BLOCK
  5
45D5862FBB1FDF
330
45D5862FBB1FD5
100
AcDbEntity
  8
0
100
AcDbBlockBegin
  2
*D33
 70
     1
 10
0.0
 20
0.0
 30
0.0
  3
*D33
  1

  0
LINE
  5
45D5862FBB1FD6
330
45D5862FBB1FD5
100
AcDbEntity
  8
TXT1
370
    -2
100
AcDbLine
 10
15763.5167009647
 20
-6778.216456943304
 30
0.0
 11
15711.16352885681
 21
-6778.216456943304
 31
0.0
  0
LINE
  5
45D5862FBB1FD7
330
45D5862FBB1FD5
100
AcDbEntity
  8
TXT1
370
    -2
100
AcDbLine
 10
15763.5167009647
 20
-6928.230909630015
 30
0.0
 11
15711.16352885681
 21
-6928.230909630015
 31
0.0
  0
LINE
  5
45D5862FBB1FD8
330
45D5862FBB1FD5
100
AcDbEntity
  8
TXT1
370
    -2
100
AcDbLine
 10
15716.16352885682
 20
-6783.216456943304
 30
0.0
 11
15716.16352885682
 21
-6923.230909630015
 31
0.0
  0
INSERT
  5
45D5862FBB1FD9
330
45D5862FBB1FD5
100
AcDbEntity
  8
TXT1
370
    -2
100
AcDbBlockReference
  2
DOT
 10
15716.16352885682
 20
-6778.216456943304
 30
0.0
 41
5.0
 42
5.0
 43
5.0
 50
90.0
  0
INSERT
  5
45D5862FBB1FDA
330
45D5862FBB1FD5
100
AcDbEntity
  8
TXT1
370
    -2
100
AcDbBlockReference
  2
DOT
 10
15716.16352885682
 20
-6928.230909630015
 30
0.0
 41
5.0
 42
5.0
 43
5.0
 50
270.0
  0
MTEXT
  5
45D5862FBB1FDB
330
45D5862FBB1FD5
100
AcDbEntity
  8
TXT1
100
AcDbMText
 10
15692.16352885682
 20
-6853.223683286657
 30
0.0
 40
23.99999999999999
 41
0.0
 71
     5
 72
     1
  1
\A1;150
 11
0.0000000000000001
 21
1.0
 31
0.0
 73
     1
 44
1.0
1001
ACAD
1000
MTEXTBEGIN
1070
    73
1070
     1
1070
    44
1040
1.0
1070
    74
1070
     0
1000
MTEXTEND
  0
POINT
  5
45D5862FBB1FDC
330
45D5862FBB1FD5
100
AcDbEntity
  8
DEFPOINTS
 62
     0
100
AcDbPoint
 10
15773.5167009647
 20
-6778.216456943304
 30
0.0
  0
POINT
  5
45D5862FBB1FDD
330
45D5862FBB1FD5
100
AcDbEntity
  8
DEFPOINTS
 62
     0
100
AcDbPoint
 10
15773.5167009647
 20
-6928.230909630015
 30
0.0
  0
POINT
  5
45D5862FBB1FDE
330
45D5862FBB1FD5
100
AcDbEntity
  8
DEFPOINTS
 62
     0
100
AcDbPoint
 10
15716.16352885682
 20
-6928.230909630015
 30
0.0
  0
ENDBLK
  5
45D5862FBB1FE0
330
45D5862FBB1FD5
100
AcDbEntity
  8
0
100
AcDbBlockEnd
  0
ENDSEC
  0
SECTION
  2
ENTITIES
  0
INSERT
  5
45D5862FB9AC56
330
45D5862FB9AFAE
100
AcDbEntity
  8
0
 62
     7
100
AcDbBlockReference
  2
SAKUJO1
 10
1773.603770723196
 20
168.0
 30
0.0
 41
4.0
 42
4.0
 43
4.0
  0
INSERT
  5
45D5862FB9AD75
330
45D5862FB9AFAE
100
AcDbEntity
  8
0
100
AcDbBlockReference
  2
INSLYTXT
 10
17.60377072319577
 20
4.0
 30
0.0
 41
4.0
 42
4.0
 43
4.0
  0
INSERT
  5
45D5862FBA2611
330
45D5862FB9AFAE
100
AcDbEntity
  8
0
 62
     7
100
AcDbBlockReference
  2
SAKUJO1
 10
4397.701991842432
 20
2441.474541263779
 30
0.0
 41
5.0
 42
5.0
 43
5.0
  0
INSERT
  5
45D5862FBA2612
330
45D5862FB9AFAE
100
AcDbEntity
  8
0
100
AcDbBlockReference
  2
INSLYTXT
 10
2202.701991842432
 20
2236.474541263779
 30
0.0
 41
5.0
 42
5.0
 43
5.0
  0
INSERT
  5
45D5862FBA2613
330
45D5862FB9AFAE
100
AcDbEntity
  8
SCALE
100
AcDbBlockReference
  2
INSLYTXT
 10
4118.246872501519
 20
4649.545037890869
 30
0.0
  0
INSERT
  5
45D5862FBA2614
330
45D5862FB9AFAE
100
AcDbEntity
  8
0
 62
     7
100
AcDbBlockReference
  2
SAKUJO1
 10
4072.158190082936
 20
3840.446868384702
 30
0.0
 41
4.0
 42
4.0
 43
4.0
  0
INSERT
  5
45D5862FBA2615
330
45D5862FB9AFAE
100
AcDbEntity
  8
0
100
AcDbBlockReference
  2
INSLYTXT
 10
2316.158190082935
 20
3676.446868384703
 30
0.0
 41
4.0
 42
4.0
 43
4.0
  0
INSERT
  5
45D5862FBA2616
330
45D5862FB9AFAE
100
AcDbEntity
  8
SCALE
100
AcDbBlockReference
  2
INSLYTXT
 10
4302.038099895659
 20
5394.364995845187
 30
0.0
  0
INSERT
  5
45D5862FBA2617
330
45D5862FB9AFAE
100
AcDbEntity
  8
0
 62
     7
100
AcDbBlockReference
  2
SAKUJO1
 10
4255.949417477075
 20
4585.266826339021
 30
0.0
 41
4.0
 42
4.0
 43
4.0
  0
INSERT
  5
45D5862FBA2618
330
45D5862FB9AFAE
100
AcDbEntity
  8
0
100
AcDbBlockReference
  2
INSLYTXT
 10
2499.949417477075
 20
4421.26682633902
 30
0.0
 41
4.0
 42
4.0
 43
4.0
  0
INSERT
  5
45D5862FBA2619
330
45D5862FB9AFAE
100
AcDbEntity
  8
0
 62
     7
100
AcDbBlockReference
  2
SAKUJO1
 10
4399.350340600101
 20
2515.626966498489
 30
0.0
 41
5.0
 42
5.0
 43
5.0
  0
INSERT
  5
45D5862FBA261A
330
45D5862FB9AFAE
100
AcDbEntity
  8
0
100
AcDbBlockReference
  2
INSLYTXT
 10
2204.350340600102
 20
2310.626966498489
 30
0.0
 41
5.0
 42
5.0
 43
5.0
  0
INSERT
  5
45D5862FBA261B
330
45D5862FB9AFAE
100
AcDbEntity
  8
0
 62
     7
100
AcDbBlockReference
  2
SAKUJO1
 10
6546.36290608299
 20
2538.974439503546
 30
0.0
 41
5.0
 42
5.0
 43
5.0
  0
INSERT
  5
45D5862FBA261C
330
45D5862FB9AFAE
100
AcDbEntity
  8
0
100
AcDbBlockReference
  2
INSLYTXT
 10
4351.362906082986
 20
2333.974439503546
 30
0.0
 41
5.0
 42
5.0
 43
5.0
  0
INSERT
  5
45D5862FBA261D
330
45D5862FB9AFAE
100
AcDbEntity
  8
0
 62
     7
100
AcDbBlockReference
  2
SAKUJO1
 10
6565.933181537648
 20
2572.791861482513
 30
0.0
 41
5.0
 42
5.0
 43
5.0
  0
INSERT
  5
45D5862FBA261E
330
45D5862FB9AFAE
100
AcDbEntity
  8
0
100
AcDbBlockReference
  2
INSLYTXT
 10
4370.933181537647
 20
2367.791861482513
 30
0.0
 41
5.0
 42
5.0
 43
5.0
  0
INSERT
  5
45D5862FBA261F
330
45D5862FB9AFAE
100
AcDbEntity
  8
0
 62
     7
100
AcDbBlockReference
  2
SAKUJO1
 10
6572.120681809511
 20
2541.864014030235
 30
0.0
 41
5.0
 42
5.0
 43
5.0
  0
INSERT
  5
45D5862FBA2620
330
45D5862FB9AFAE
100
AcDbEntity
  8
0
100
AcDbBlockReference
  2
INSLYTXT
 10
4377.120681809508
 20
2336.864014030236
 30
0.0
 41
5.0
 42
5.0
 43
5.0
  0
INSERT
  5
45D5862FBA2621
330
45D5862FB9AFAE
100
AcDbEntity
  8
0
 62
     7
100
AcDbBlockReference
  2
SAKUJO1
 10
6596.179825580097
 20
2531.79456123065
 30
0.0
 41
5.0
 42
5.0
 43
5.0
  0
INSERT
  5
45D5862FBA2622
330
45D5862FB9AFAE
100
AcDbEntity
  8
0
100
AcDbBlockReference
  2
INSLYTXT
 10
4401.179825580096
 20
2326.794561230649
 30
0.0
 41
5.0
 42
5.0
 43
5.0
  0
INSERT
  5
45D5862FBA2623
330
45D5862FB9AFAE
100
AcDbEntity
  8
0
 62
     7
100
AcDbBlockReference
  2
SAKUJO1
 10
5434.101840038065
 20
2428.181494818614
 30
0.0
 41
2.0
 42
2.0
 43
2.0
  0
INSERT
  5
45D5862FBA2624
330
45D5862FB9AFAE
100
AcDbEntity
  8
0
100
AcDbBlockReference
  2
INSLYTXT
 10
4556.101840038065
 20
2346.181494818615
 30
0.0
 41
2.0
 42
2.0
 43
2.0
  0
INSERT
  5
45D5862FBA2625
330
45D5862FB9AFAE
100
AcDbEntity
  8
0
 62
     7
100
AcDbBlockReference
  2
SAKUJO1
 10
6285.969972411262
 20
2092.792814074005
 30
0.0
 41
2.0
 42
2.0
 43
2.0
  0
INSERT
  5
45D5862FBA2626
330
45D5862FB9AFAE
100
AcDbEntity
  8
0
100
AcDbBlockReference
  2
INSLYTXT
 10
5407.969972411263
 20
2010.792814074005
 30
0.0
 41
2.0
 42
2.0
 43
2.0
  0
INSERT
  5
45D5862FBA2627
330
45D5862FB9AFAE
100
AcDbEntity
  8
0
 62
     7
100
AcDbBlockReference
  2
SAKUJO1
 10
5310.980474259443
 20
2688.982824237232
 30
0.0
 41
2.0
 42
2.0
 43
2.0
  0
INSERT
  5
45D5862FBA2628
330
45D5862FB9AFAE
100
AcDbEntity
  8
0
100
AcDbBlockReference
  2
INSLYTXT
 10
4432.980474259442
 20
2606.982824237233
 30
0.0
 41
2.0
 42
2.0
 43
2.0
  0
INSERT
  5
45D5862FBA2629
330
45D5862FB9AFAE
100
AcDbEntity
  8
0
 62
     7
100
AcDbBlockReference
  2
SAKUJO1
 10
6162.848606632639
 20
2353.594143492623
 30
0.0
 41
2.0
 42
2.0
 43
2.0
  0
INSERT
  5
45D5862FBA262A
330
45D5862FB9AFAE
100
AcDbEntity
  8
0
100
AcDbBlockReference
  2
INSLYTXT
 10
5284.848606632639
 20
2271.594143492623
 30
0.0
 41
2.0
 42
2.0
 43
2.0
  0
INSERT
  5
45D5862FBA262B
330
45D5862FB9AFAE
100
AcDbEntity
  8
0
 62
     7
100
AcDbBlockReference
  2
SAKUJO1
 10
5294.138178146113
 20
2559.89924538029
 30
0.0
 41
2.0
 42
2.0
 43
2.0
  0
INSERT
  5
45D5862FBA262C
330
45D5862FB9AFAE
100
AcDbEntity
  8
0
100
AcDbBlockReference
  2
INSLYTXT
 10
4416.138178146112
 20
2477.89924538029
 30
0.0
 41
2.0
 42
2.0
 43
2.0
  0
INSERT
  5
45D5862FBA262D
330
45D5862FB9AFAE
100
AcDbEntity
  8
0
 62
     7
100
AcDbBlockReference
  2
SAKUJO1
 10
6146.006310519307
 20
2224.51056463568
 30
0.0
 41
2.0
 42
2.0
 43
2.0
  0
INSERT
  5
45D5862FBA262E
330
45D5862FB9AFAE
100
AcDbEntity
  8
0
100
AcDbBlockReference
  2
INSLYTXT
 10
5268.006310519307
 20
2142.51056463568
 30
0.0
 41
2.0
 42
2.0
 43
2.0
  0
INSERT
  5
45D5862FBA3941
330
45D5862FB9AFAE
100
AcDbEntity
  8
0
 62
     7
100
AcDbBlockReference
  2
SAKUJO1
 10
4387.933486032511
 20
2412.941412722794
 30
0.0
 41
5.0
 42
5.0
 43
5.0
  0
INSERT
  5
45D5862FBA3942
330
45D5862FB9AFAE
100
AcDbEntity
  8
0
100
AcDbBlockReference
  2
INSLYTXT
 10
2192.933486032512
 20
2207.941412722794
 30
0.0
 41
5.0
 42
5.0
 43
5.0
  0
INSERT
  5
45D5862FBA3943
330
45D5862FB9AFAE
100
AcDbEntity
  8
SCALE
100
AcDbBlockReference
  2
INSLYTXT
 10
4108.478366691598
 20
4621.011909349882
 30
0.0
  0
INSERT
  5
45D5862FBA3944
330
45D5862FB9AFAE
100
AcDbEntity
  8
0
 62
     7
100
AcDbBlockReference
  2
SAKUJO1
 10
4062.389684273012
 20
3811.913739843716
 30
0.0
 41
4.0
 42
4.0
 43
4.0
  0
INSERT
  5
45D5862FBA3945
330
45D5862FB9AFAE
100
AcDbEntity
  8
0
100
AcDbBlockReference
  2
INSLYTXT
 10
2306.389684273014
 20
3647.913739843716
 30
0.0
 41
4.0
 42
4.0
 43
4.0
  0
INSERT
  5
45D5862FBA3946
330
45D5862FB9AFAE
100
AcDbEntity
  8
SCALE
100
AcDbBlockReference
  2
INSLYTXT
 10
4292.269594085737
 20
5365.8318673042
 30
0.0
  0
INSERT
  5
45D5862FBA3947
330
45D5862FB9AFAE
100
AcDbEntity
  8
0
 62
     7
100
AcDbBlockReference
  2
SAKUJO1
 10
4246.180911667154
 20
4556.733697798033
 30
0.0
 41
4.0
 42
4.0
 43
4.0
  0
INSERT
  5
45D5862FBA3948
330
45D5862FB9AFAE
100
AcDbEntity
  8
0
100
AcDbBlockReference
  2
INSLYTXT
 10
2490.180911667154
 20
4392.733697798034
 30
0.0
 41
4.0
 42
4.0
 43
4.0
  0
INSERT
  5
45D5862FBA3949
330
45D5862FB9AFAE
100
AcDbEntity
  8
0
 62
     7
100
AcDbBlockReference
  2
SAKUJO1
 10
4389.581834790181
 20
2487.093837957504
 30
0.0
 41
5.0
 42
5.0
 43
5.0
  0
INSERT
  5
45D5862FBA394A
330
45D5862FB9AFAE
100
AcDbEntity
  8
0
100
AcDbBlockReference
  2
INSLYTXT
 10
2194.58183479018
 20
2282.093837957503
 30
0.0
 41
5.0
 42
5.0
 43
5.0
  0
INSERT
  5
45D5862FBA394B
330
45D5862FB9AFAE
100
AcDbEntity
  8
0
 62
     7
100
AcDbBlockReference
  2
SAKUJO1
 10
6536.594400273067
 20
2510.441310962561
 30
0.0
 41
5.0
 42
5.0
 43
5.0
  0
INSERT
  5
45D5862FBA394C
330
45D5862FB9AFAE
100
AcDbEntity
  8
0
100
AcDbBlockReference
  2
INSLYTXT
 10
4341.594400273065
 20
2305.44131096256
 30
0.0
 41
5.0
 42
5.0
 43
5.0
  0
INSERT
  5
45D5862FBA394D
330
45D5862FB9AFAE
100
AcDbEntity
  8
0
 62
     7
100
AcDbBlockReference
  2
SAKUJO1
 10
6556.164675727727
 20
2544.258732941527
 30
0.0
 41
5.0
 42
5.0
 43
5.0
  0
INSERT
  5
45D5862FBA394E
330
45D5862FB9AFAE
100
AcDbEntity
  8
0
100
AcDbBlockReference
  2
INSLYTXT
 10
4361.164675727724
 20
2339.258732941527
 30
0.0
 41
5.0
 42
5.0
 43
5.0
  0
INSERT
  5
45D5862FBA394F
330
45D5862FB9AFAE
100
AcDbEntity
  8
0
 62
     7
100
AcDbBlockReference
  2
SAKUJO1
 10
6562.352175999592
 20
2513.330885489249
 30
0.0
 41
5.0
 42
5.0
 43
5.0
  0
INSERT
  5
45D5862FBA3950
330
45D5862FB9AFAE
100
AcDbEntity
  8
0
100
AcDbBlockReference
  2
INSLYTXT
 10
4367.35217599959
 20
2308.330885489249
 30
0.0
 41
5.0
 42
5.0
 43
5.0
  0
INSERT
  5
45D5862FBA3951
330
45D5862FB9AFAE
100
AcDbEntity
  8
0
 62
     7
100
AcDbBlockReference
  2
SAKUJO1
 10
6586.411319770177
 20
2503.261432689664
 30
0.0
 41
5.0
 42
5.0
 43
5.0
  0
INSERT
  5
45D5862FBA3952
330
45D5862FB9AFAE
100
AcDbEntity
  8
0
100
AcDbBlockReference
  2
INSLYTXT
 10
4391.411319770177
 20
2298.261432689663
 30
0.0
 41
5.0
 42
5.0
 43
5.0
  0
INSERT
  5
45D5862FBA3953
330
45D5862FB9AFAE
100
AcDbEntity
  8
0
 62
     7
100
AcDbBlockReference
  2
SAKUJO1
 10
5424.333334228145
 20
2399.648366277628
 30
0.0
 41
2.0
 42
2.0
 43
2.0
  0
INSERT
  5
45D5862FBA3954
330
45D5862FB9AFAE
100
AcDbEntity
  8
0
100
AcDbBlockReference
  2
INSLYTXT
 10
4546.333334228145
 20
2317.648366277628
 30
0.0
 41
2.0
 42
2.0
 43
2.0
  0
INSERT
  5
45D5862FBA3955
330
45D5862FB9AFAE
100
AcDbEntity
  8
0
 62
     7
100
AcDbBlockReference
  2
SAKUJO1
 10
6276.201466601342
 20
2064.259685533019
 30
0.0
 41
2.0
 42
2.0
 43
2.0
  0
INSERT
  5
45D5862FBA3956
330
45D5862FB9AFAE
100
AcDbEntity
  8
0
100
AcDbBlockReference
  2
INSLYTXT
 10
5398.201466601341
 20
1982.259685533019
 30
0.0
 41
2.0
 42
2.0
 43
2.0
  0
INSERT
  5
45D5862FBA3957
330
45D5862FB9AFAE
100
AcDbEntity
  8
0
 62
     7
100
AcDbBlockReference
  2
SAKUJO1
 10
5301.211968449521
 20
2660.449695696247
 30
0.0
 41
2.0
 42
2.0
 43
2.0
  0
INSERT
  5
45D5862FBA3958
330
45D5862FB9AFAE
100
AcDbEntity
  8
0
100
AcDbBlockReference
  2
INSLYTXT
 10
4423.21196844952
 20
2578.449695696246
 30
0.0
 41
2.0
 42
2.0
 43
2.0
  0
INSERT
  5
45D5862FBA3959
330
45D5862FB9AFAE
100
AcDbEntity
  8
0
 62
     7
100
AcDbBlockReference
  2
SAKUJO1
 10
6153.080100822718
 20
2325.061014951637
 30
0.0
 41
2.0
 42
2.0
 43
2.0
  0
INSERT
  5
45D5862FBA395A
330
45D5862FB9AFAE
100
AcDbEntity
  8
0
100
AcDbBlockReference
  2
INSLYTXT
 10
5275.080100822719
 20
2243.061014951637
 30
0.0
 41
2.0
 42
2.0
 43
2.0
  0
INSERT
  5
45D5862FBA395B
330
45D5862FB9AFAE
100
AcDbEntity
  8
0
 62
     7
100
AcDbBlockReference
  2
SAKUJO1
 10
5284.369672336191
 20
2531.366116839303
 30
0.0
 41
2.0
 42
2.0
 43
2.0
  0
INSERT
  5
45D5862FBA395C
330
45D5862FB9AFAE
100
AcDbEntity
  8
0
100
AcDbBlockReference
  2
INSLYTXT
 10
4406.36967233619
 20
2449.366116839303
 30
0.0
 41
2.0
 42
2.0
 43
2.0
  0
INSERT
  5
45D5862FBA395D
330
45D5862FB9AFAE
100
AcDbEntity
  8
0
 62
     7
100
AcDbBlockReference
  2
SAKUJO1
 10
6136.237804709387
 20
2195.977436094694
 30
0.0
 41
2.0
 42
2.0
 43
2.0
  0
INSERT
  5
45D5862FBA395E
330
45D5862FB9AFAE
100
AcDbEntity
  8
0
100
AcDbBlockReference
  2
INSLYTXT
 10
5258.237804709387
 20
2113.977436094694
 30
0.0
 41
2.0
 42
2.0
 43
2.0
  0
INSERT
  5
45D5862FBA8D55
330
45D5862FB9AFAE
100
AcDbEntity
  8
0
 62
     7
100
AcDbBlockReference
  2
SAKUJO1
 10
208.9435958954072
 20
2335.517119940985
 30
0.0
 41
5.0
 42
5.0
 43
5.0
  0
INSERT
  5
45D5862FBA8D56
330
45D5862FB9AFAE
100
AcDbEntity
  8
0
100
AcDbBlockReference
  2
INSLYTXT
 10
-1986.056404104592
 20
2130.517119940985
 30
0.0
 41
5.0
 42
5.0
 43
5.0
  0
INSERT
  5
45D5862FBA8D57
330
45D5862FB9AFAE
100
AcDbEntity
  8
SCALE
100
AcDbBlockReference
  2
INSLYTXT
 10
-70.5115234455061
 20
4543.587616568074
 30
0.0
  0
INSERT
  5
45D5862FBA8D58
330
45D5862FB9AFAE
100
AcDbEntity
  8
0
 62
     7
100
AcDbBlockReference
  2
SAKUJO1
 10
-116.6002058640897
 20
3734.489447061908
 30
0.0
 41
4.0
 42
4.0
 43
4.0
  0
INSERT
  5
45D5862FBA8D59
330
45D5862FB9AFAE
100
AcDbEntity
  8
0
100
AcDbBlockReference
  2
INSLYTXT
 10
-1872.60020586409
 20
3570.489447061908
 30
0.0
 41
4.0
 42
4.0
 43
4.0
  0
INSERT
  5
45D5862FBA8D5A
330
45D5862FB9AFAE
100
AcDbEntity
  8
SCALE
100
AcDbBlockReference
  2
INSLYTXT
 10
113.279703948634
 20
5288.407574522391
 30
0.0
  0
INSERT
  5
45D5862FBA8D5B
330
45D5862FB9AFAE
100
AcDbEntity
  8
0
 62
     7
100
AcDbBlockReference
  2
SAKUJO1
 10
67.19102153005042
 20
4479.309405016225
 30
0.0
 41
4.0
 42
4.0
 43
4.0
  0
INSERT
  5
45D5862FBA8D5C
330
45D5862FB9AFAE
100
AcDbEntity
  8
0
100
AcDbBlockReference
  2
INSLYTXT
 10
-1688.808978469949
 20
4315.309405016225
 30
0.0
 41
4.0
 42
4.0
 43
4.0
  0
INSERT
  5
45D5862FBA8D5D
330
45D5862FB9AFAE
100
AcDbEntity
  8
0
 62
     7
100
AcDbBlockReference
  2
SAKUJO1
 10
210.591944653077
 20
2409.669545175695
 30
0.0
 41
5.0
 42
5.0
 43
5.0
  0
INSERT
  5
45D5862FBA8D5E
330
45D5862FB9AFAE
100
AcDbEntity
  8
0
100
AcDbBlockReference
  2
INSLYTXT
 10
-1984.408055346922
 20
2204.669545175695
 30
0.0
 41
5.0
 42
5.0
 43
5.0
  0
INSERT
  5
45D5862FBA8D5F
330
45D5862FB9AFAE
100
AcDbEntity
  8
0
 62
     7
100
AcDbBlockReference
  2
SAKUJO1
 10
2357.604510135963
 20
2433.017018180752
 30
0.0
 41
5.0
 42
5.0
 43
5.0
  0
INSERT
  5
45D5862FBA8D60
330
45D5862FB9AFAE
100
AcDbEntity
  8
0
100
AcDbBlockReference
  2
INSLYTXT
 10
162.6045101359613
 20
2228.017018180752
 30
0.0
 41
5.0
 42
5.0
 43
5.0
  0
INSERT
  5
45D5862FBA8D61
330
45D5862FB9AFAE
100
AcDbEntity
  8
0
 62
     7
100
AcDbBlockReference
  2
SAKUJO1
 10
2377.174785590623
 20
2466.834440159719
 30
0.0
 41
5.0
 42
5.0
 43
5.0
  0
INSERT
  5
45D5862FBA8D62
330
45D5862FB9AFAE
100
AcDbEntity
  8
0
100
AcDbBlockReference
  2
INSLYTXT
 10
182.1747855906214
 20
2261.834440159719
 30
0.0
 41
5.0
 42
5.0
 43
5.0
  0
INSERT
  5
45D5862FBA8D63
330
45D5862FB9AFAE
100
AcDbEntity
  8
0
 62
     7
100
AcDbBlockReference
  2
SAKUJO1
 10
2383.362285862487
 20
2435.906592707441
 30
0.0
 41
5.0
 42
5.0
 43
5.0
  0
INSERT
  5
45D5862FBA8D64
330
45D5862FB9AFAE
100
AcDbEntity
  8
0
100
AcDbBlockReference
  2
INSLYTXT
 10
188.3622858624858
 20
2230.906592707441
 30
0.0
 41
5.0
 42
5.0
 43
5.0
  0
INSERT
  5
45D5862FBA8D65
330
45D5862FB9AFAE
100
AcDbEntity
  8
0
 62
     7
100
AcDbBlockReference
  2
SAKUJO1
 10
2407.421429633072
 20
2425.837139907855
 30
0.0
 41
5.0
 42
5.0
 43
5.0
  0
INSERT
  5
45D5862FBA8D66
330
45D5862FB9AFAE
100
AcDbEntity
  8
0
100
AcDbBlockReference
  2
INSLYTXT
 10
212.4214296330719
 20
2220.837139907855
 30
0.0
 41
5.0
 42
5.0
 43
5.0
  0
INSERT
  5
45D5862FBA8D67
330
45D5862FB9AFAE
100
AcDbEntity
  8
0
 62
     7
100
AcDbBlockReference
  2
SAKUJO1
 10
1245.34344409104
 20
2322.22407349582
 30
0.0
 41
2.0
 42
2.0
 43
2.0
  0
INSERT
  5
45D5862FBA8D68
330
45D5862FB9AFAE
100
AcDbEntity
  8
0
100
AcDbBlockReference
  2
INSLYTXT
 10
367.3434440910405
 20
2240.22407349582
 30
0.0
 41
2.0
 42
2.0
 43
2.0
  0
INSERT
  5
45D5862FBA8D69
330
45D5862FB9AFAE
100
AcDbEntity
  8
0
 62
     7
100
AcDbBlockReference
  2
SAKUJO1
 10
2097.211576464236
 20
1986.835392751211
 30
0.0
 41
2.0
 42
2.0
 43
2.0
  0
INSERT
  5
45D5862FBA8D6A
330
45D5862FB9AFAE
100
AcDbEntity
  8
0
100
AcDbBlockReference
  2
INSLYTXT
 10
1219.211576464236
 20
1904.835392751211
 30
0.0
 41
2.0
 42
2.0
 43
2.0
  0
INSERT
  5
45D5862FBA8D6B
330
45D5862FB9AFAE
100
AcDbEntity
  8
0
 62
     7
100
AcDbBlockReference
  2
SAKUJO1
 10
1122.222078312417
 20
2583.025402914438
 30
0.0
 41
2.0
 42
2.0
 43
2.0
  0
INSERT
  5
45D5862FBA8D6C
330
45D5862FB9AFAE
100
AcDbEntity
  8
0
100
AcDbBlockReference
  2
INSLYTXT
 10
244.2220783124176
 20
2501.025402914438
 30
0.0
 41
2.0
 42
2.0
 43
2.0
  0
INSERT
  5
45D5862FBA8D6D
330
45D5862FB9AFAE
100
AcDbEntity
  8
0
 62
     7
100
AcDbBlockReference
  2
SAKUJO1
 10
1974.090210685613
 20
2247.636722169829
 30
0.0
 41
2.0
 42
2.0
 43
2.0
  0
INSERT
  5
45D5862FBA8D6E
330
45D5862FB9AFAE
100
AcDbEntity
  8
0
100
AcDbBlockReference
  2
INSLYTXT
 10
1096.090210685613
 20
2165.636722169829
 30
0.0
 41
2.0
 42
2.0
 43
2.0
  0
INSERT
  5
45D5862FBA8D6F
330
45D5862FB9AFAE
100
AcDbEntity
  8
0
 62
     7
100
AcDbBlockReference
  2
SAKUJO1
 10
1105.379782199086
 20
2453.941824057495
 30
0.0
 41
2.0
 42
2.0
 43
2.0
  0
INSERT
  5
45D5862FBA8D70
330
45D5862FB9AFAE
100
AcDbEntity
  8
0
100
AcDbBlockReference
  2
INSLYTXT
 10
227.3797821990865
 20
2371.941824057496
 30
0.0
 41
2.0
 42
2.0
 43
2.0
  0
INSERT
  5
45D5862FBA8D71
330
45D5862FB9AFAE
100
AcDbEntity
  8
0
 62
     7
100
AcDbBlockReference
  2
SAKUJO1
 10
1957.247914572282
 20
2118.553143312886
 30
0.0
 41
2.0
 42
2.0
 43
2.0
  0
INSERT
  5
45D5862FBA8D72
330
45D5862FB9AFAE
100
AcDbEntity
  8
0
100
AcDbBlockReference
  2
INSLYTXT
 10
1079.247914572282
 20
2036.553143312886
 30
0.0
 41
2.0
 42
2.0
 43
2.0
  0
INSERT
  5
45D5862FBAB71B
330
45D5862FB9AFAE
100
AcDbEntity
  8
0
 62
     7
100
AcDbBlockReference
  2
SAKUJO1
 10
809.8861435420058
 20
3864.579332984789
 30
0.0
 41
5.0
 42
5.0
 43
5.0
  0
INSERT
  5
45D5862FBAB71C
330
45D5862FB9AFAE
100
AcDbEntity
  8
0
100
AcDbBlockReference
  2
INSLYTXT
 10
-1385.113856457994
 20
3659.57933298479
 30
0.0
 41
5.0
 42
5.0
 43
5.0
  0
INSERT
  5
45D5862FBAB71D
330
45D5862FB9AFAE
100
AcDbEntity
  8
SCALE
100
AcDbBlockReference
  2
INSLYTXT
 10
530.4310242010923
 20
6072.649829611879
 30
0.0
  0
INSERT
  5
45D5862FBAB71E
330
45D5862FB9AFAE
100
AcDbEntity
  8
0
 62
     7
100
AcDbBlockReference
  2
SAKUJO1
 10
484.3423417825087
 20
5263.551660105712
 30
0.0
 41
4.0
 42
4.0
 43
4.0
  0
INSERT
  5
45D5862FBAB71F
330
45D5862FB9AFAE
100
AcDbEntity
  8
0
100
AcDbBlockReference
  2
INSLYTXT
 10
-1271.657658217491
 20
5099.551660105713
 30
0.0
 41
4.0
 42
4.0
 43
4.0
  0
INSERT
  5
45D5862FBAB720
330
45D5862FB9AFAE
100
AcDbEntity
  8
SCALE
100
AcDbBlockReference
  2
INSLYTXT
 10
714.2222515952327
 20
6817.469787566196
 30
0.0
  0
INSERT
  5
45D5862FBAB721
330
45D5862FB9AFAE
100
AcDbEntity
  8
0
 62
     7
100
AcDbBlockReference
  2
SAKUJO1
 10
668.133569176649
 20
6008.37161806003
 30
0.0
 41
4.0
 42
4.0
 43
4.0
  0
INSERT
  5
45D5862FBAB722
330
45D5862FB9AFAE
100
AcDbEntity
  8
0
100
AcDbBlockReference
  2
INSLYTXT
 10
-1087.866430823351
 20
5844.37161806003
 30
0.0
 41
4.0
 42
4.0
 43
4.0
  0
INSERT
  5
45D5862FBAB723
330
45D5862FB9AFAE
100
AcDbEntity
  8
0
 62
     7
100
AcDbBlockReference
  2
SAKUJO1
 10
811.5344922996754
 20
3938.731758219499
 30
0.0
 41
5.0
 42
5.0
 43
5.0
  0
INSERT
  5
45D5862FBAB724
330
45D5862FB9AFAE
100
AcDbEntity
  8
0
100
AcDbBlockReference
  2
INSLYTXT
 10
-1383.465507700324
 20
3733.7317582195
 30
0.0
 41
5.0
 42
5.0
 43
5.0
  0
INSERT
  5
45D5862FBAB725
330
45D5862FB9AFAE
100
AcDbEntity
  8
0
 62
     7
100
AcDbBlockReference
  2
SAKUJO1
 10
2958.547057782562
 20
3962.079231224556
 30
0.0
 41
5.0
 42
5.0
 43
5.0
  0
INSERT
  5
45D5862FBAB726
330
45D5862FB9AFAE
100
AcDbEntity
  8
0
100
AcDbBlockReference
  2
INSLYTXT
 10
763.5470577825598
 20
3757.079231224557
 30
0.0
 41
5.0
 42
5.0
 43
5.0
  0
INSERT
  5
45D5862FBAB727
330
45D5862FB9AFAE
100
AcDbEntity
  8
0
 62
     7
100
AcDbBlockReference
  2
SAKUJO1
 10
2978.117333237221
 20
3995.896653203523
 30
0.0
 41
5.0
 42
5.0
 43
5.0
  0
INSERT
  5
45D5862FBAB728
330
45D5862FB9AFAE
100
AcDbEntity
  8
0
100
AcDbBlockReference
  2
INSLYTXT
 10
783.11733323722
 20
3790.896653203523
 30
0.0
 41
5.0
 42
5.0
 43
5.0
  0
INSERT
  5
45D5862FBAB729
330
45D5862FB9AFAE
100
AcDbEntity
  8
0
 62
     7
100
AcDbBlockReference
  2
SAKUJO1
 10
2984.304833509087
 20
3964.968805751246
 30
0.0
 41
5.0
 42
5.0
 43
5.0
  0
INSERT
  5
45D5862FBAB72A
330
45D5862FB9AFAE
100
AcDbEntity
  8
0
100
AcDbBlockReference
  2
INSLYTXT
 10
789.3048335090843
 20
3759.968805751245
 30
0.0
 41
5.0
 42
5.0
 43
5.0
  0
INSERT
  5
45D5862FBAB72B
330
45D5862FB9AFAE
100
AcDbEntity
  8
0
 62
     7
100
AcDbBlockReference
  2
SAKUJO1
 10
3008.36397727967
 20
3954.89935295166
 30
0.0
 41
5.0
 42
5.0
 43
5.0
  0
INSERT
  5
45D5862FBAB72C
330
45D5862FB9AFAE
100
AcDbEntity
  8
0
100
AcDbBlockReference
  2
INSLYTXT
 10
813.3639772796705
 20
3749.899352951659
 30
0.0
 41
5.0
 42
5.0
 43
5.0
  0
INSERT
  5
45D5862FBAB72D
330
45D5862FB9AFAE
100
AcDbEntity
  8
0
 62
     7
100
AcDbBlockReference
  2
SAKUJO1
 10
1846.285991737639
 20
3851.286286539624
 30
0.0
 41
2.0
 42
2.0
 43
2.0
  0
INSERT
  5
45D5862FBAB72E
330
45D5862FB9AFAE
100
AcDbEntity
  8
0
100
AcDbBlockReference
  2
INSLYTXT
 10
968.285991737639
 20
3769.286286539625
 30
0.0
 41
2.0
 42
2.0
 43
2.0
  0
INSERT
  5
45D5862FBAB72F
330
45D5862FB9AFAE
100
AcDbEntity
  8
0
 62
     7
100
AcDbBlockReference
  2
SAKUJO1
 10
2698.154124110835
 20
3515.897605795016
 30
0.0
 41
2.0
 42
2.0
 43
2.0
  0
INSERT
  5
45D5862FBAB730
330
45D5862FB9AFAE
100
AcDbEntity
  8
0
100
AcDbBlockReference
  2
INSLYTXT
 10
1820.154124110835
 20
3433.897605795016
 30
0.0
 41
2.0
 42
2.0
 43
2.0
  0
INSERT
  5
45D5862FBAB731
330
45D5862FB9AFAE
100
AcDbEntity
  8
0
 62
     7
100
AcDbBlockReference
  2
SAKUJO1
 10
1723.164625959016
 20
4112.087615958243
 30
0.0
 41
2.0
 42
2.0
 43
2.0
  0
INSERT
  5
45D5862FBAB732
330
45D5862FB9AFAE
100
AcDbEntity
  8
0
100
AcDbBlockReference
  2
INSLYTXT
 10
845.1646259590161
 20
4030.087615958243
 30
0.0
 41
2.0
 42
2.0
 43
2.0
  0
INSERT
  5
45D5862FBAB733
330
45D5862FB9AFAE
100
AcDbEntity
  8
0
 62
     7
100
AcDbBlockReference
  2
SAKUJO1
 10
2575.032758332212
 20
3776.698935213633
 30
0.0
 41
2.0
 42
2.0
 43
2.0
  0
INSERT
  5
45D5862FBAB734
330
45D5862FB9AFAE
100
AcDbEntity
  8
0
100
AcDbBlockReference
  2
INSLYTXT
 10
1697.032758332212
 20
3694.698935213633
 30
0.0
 41
2.0
 42
2.0
 43
2.0
  0
INSERT
  5
45D5862FBAB735
330
45D5862FB9AFAE
100
AcDbEntity
  8
0
 62
     7
100
AcDbBlockReference
  2
SAKUJO1
 10
1706.322329845685
 20
3983.004037101301
 30
0.0
 41
2.0
 42
2.0
 43
2.0
  0
INSERT
  5
45D5862FBAB736
330
45D5862FB9AFAE
100
AcDbEntity
  8
0
100
AcDbBlockReference
  2
INSLYTXT
 10
828.3223298456851
 20
3901.004037101301
 30
0.0
 41
2.0
 42
2.0
 43
2.0
  0
INSERT
  5
45D5862FBAB737
330
45D5862FB9AFAE
100
AcDbEntity
  8
0
 62
     7
100
AcDbBlockReference
  2
SAKUJO1
 10
2558.190462218881
 20
3647.61535635669
 30
0.0
 41
2.0
 42
2.0
 43
2.0
  0
INSERT
  5
45D5862FBAB738
330
45D5862FB9AFAE
100
AcDbEntity
  8
0
100
AcDbBlockReference
  2
INSLYTXT
 10
1680.190462218881
 20
3565.615356356692
 30
0.0
 41
2.0
 42
2.0
 43
2.0
  0
LWPOLYLINE
  5
45D5862FBAFEB1
102
{ACAD_REACTORS
330
45D5862FBAFEB7
102
}
330
45D5862FB9AFAE
100
AcDbEntity
  8
TXT1
100
AcDbPolyline
 90
        4
 70
     1
 43
0.0
 10
14024.36180564099
 20
-6054.175441007314
 10
16004.36180564099
 20
-6054.175441007314
 10
16004.36180564099
 20
-7753.675441007316
 10
14024.36180564099
 20
-7753.675441007316
  0
LWPOLYLINE
  5
45D5862FBAFEB2
102
{ACAD_REACTORS
330
45D5862FBAFEB7
102
}
330
45D5862FB9AFAE
100
AcDbEntity
  8
0
100
AcDbPolyline
 90
        2
 70
     0
 43
0.0
 10
14024.36180564099
 20
-6154.175441007314
 10
16004.36180564099
 20
-6154.175441007314
  0
LWPOLYLINE
  5
45D5862FBAFEB3
330
45D5862FB9AFAE
100
AcDbEntity
  8
0
100
AcDbPolyline
 90
        2
 70
     0
 43
0.0
 10
14324.36180564099
 20
-6054.175441007314
 10
14324.36180564099
 20
-6154.175441007314
  0
LWPOLYLINE
  5
45D5862FBAFEB4
330
45D5862FB9AFAE
100
AcDbEntity
  8
0
100
AcDbPolyline
 90
        2
 70
     0
 43
0.0
 10
14324.36180564099
 20
-6054.175441007314
 10
14324.36180564099
 20
-6154.175441007314
  0
TEXT
  5
45D5862FBB0076
330
45D5862FB9AFAE
100
AcDbEntity
  8
TXT1
100
AcDbText
 10
14045.34295202501
 20
-6105.175441007316
 30
0.0
 40
30.0
  1
図面番号
 11
14045.34295202501
 21
-6109.175441007316
 31
0.0
100
AcDbText
 73
     1
  0
TEXT
  5
45D5862FBB0077
330
45D5862FB9AFAE
100
AcDbEntity
  8
TXT1
100
AcDbText
 10
14345.34295202501
 20
-6105.175441007316
 30
0.0
 40
30.0
  1
図面名称
 11
14345.34295202501
 21
-6109.175441007316
 31
0.0
100
AcDbText
 73
     1
  0
LWPOLYLINE
  5
45D5862FBB0079
330
45D5862FB9AFAE
100
AcDbEntity
  8
0
100
AcDbPolyline
 90
        2
 70
     0
 43
0.0
 10
14324.36180564099
 20
-6054.175441007314
 10
14324.36180564099
 20
-6154.175441007314
  0
TEXT
  5
45D5862FBB007A
330
45D5862FB9AFAE
100
AcDbEntity
  8
TXT1
100
AcDbText
 10
14547.92991232691
 20
-6126.433975299404
 30
0.0
 40
35.0
  1
外壁／屋根（流れ）取合納まり図（外壁：ＡＬＣ版、角波鉄板）
 41
0.8
 11
14547.92991232691
 21
-6131.100641966071
 31
0.0
100
AcDbText
 73
     1
  0
TEXT
  5
45D5862FBB008A
330
45D5862FB9AFAE
100
AcDbEntity
  8
TXT1
100
AcDbText
 10
14073.06082419018
 20
-6866.781213579878
 30
0.0
 40
24.0
  1
ＪＦＥルーフ ロック５０
 11
14073.06082419018
 21
-6854.781213579878
 31
0.0
100
AcDbText
 73
     2
  0
LWPOLYLINE
  5
45D5862FBB008B
330
45D5862FB9AFAE
100
AcDbEntity
  8
TXT1
100
AcDbPolyline
 90
        2
 70
     0
 43
0.0
 10
14062.24811526508
 20
-6869.781213579878
 10
14412.65679681473
 20
-6869.781213579878
  0
LWPOLYLINE
  5
45D5862FBB0090
330
45D5862FB9AFAE
100
AcDbEntity
  8
DOUBUCHI
  6
DASHED
100
AcDbPolyline
 90
        2
 70
     0
 43
0.0
 10
14070.89518426078
 20
-7090.703434609405
 10
14767.02553500058
 20
-7090.703434609405
1001
ACAD
1000
ASC_BOUNDS
1002
{
1070
    16
1002
}
  0
LWPOLYLINE
  5
45D5862FBB0091
330
45D5862FB9AFAE
100
AcDbEntity
  8
DOUBUCHI
  6
DASHED
100
AcDbPolyline
 90
        2
 70
     0
 43
0.0
 10
14070.89518426078
 20
-6995.303434609403
 10
14767.02553500058
 20
-6995.303434609403
1001
ACAD
1000
ASC_BOUNDS
1002
{
1070
    16
1002
}
  0
LWPOLYLINE
  5
45D5862FBB0092
330
45D5862FB9AFAE
100
AcDbEntity
  8
DOUBUCHI
100
AcDbPolyline
 90
        2
 70
     0
 43
0.0
 10
14070.89518426078
 20
-7073.003434609403
 10
14767.02553500058
 20
-7073.003434609403
1001
ACAD
1000
ASC_BOUNDS
1002
{
1070
    16
1002
}
  0
LWPOLYLINE
  5
45D5862FBB0093
330
45D5862FB9AFAE
100
AcDbEntity
  8
DOUBUCHI
100
AcDbPolyline
 90
        2
 70
     0
 43
0.0
 10
14070.89518426078
 20
-7013.003434609403
 10
14767.02553500058
 20
-7013.003434609403
1001
ACAD
1000
ASC_BOUNDS
1002
{
1070
    16
1002
}
  0
LWPOLYLINE
  5
45D5862FBB0094
330
45D5862FB9AFAE
100
AcDbEntity
  8
DOUBUCHI
100
AcDbPolyline
 90
        2
 70
     0
 43
0.0
 10
14070.89518426078
 20
-6993.003434609403
 10
14767.02553500058
 20
-6993.003434609403
1001
ACAD
1000
ASC_BOUNDS
1002
{
1070
    16
1002
}
  0
LWPOLYLINE
  5
45D5862FBB0095
330
45D5862FB9AFAE
100
AcDbEntity
  8
DOUBUCHI
100
AcDbPolyline
 90
        2
 70
     0
 43
0.0
 10
14070.89518426078
 20
-7093.003434609403
 10
14767.02553500058
 20
-7093.003434609403
1001
ACAD
1000
ASC_BOUNDS
1002
{
1070
    16
1002
}
  0
LWPOLYLINE
  5
45D5862FBB0096
330
45D5862FB9AFAE
100
AcDbEntity
  8
CENTER
100
AcDbPolyline
 90
        2
 70
     0
 43
0.0
 10
14128.83623962748
 20
-6759.357544021852
 10
14128.83623962748
 20
-7129.061144186801
  0
TEXT
  5
45D5862FBB0128
330
45D5862FB9AFAE
100
AcDbEntity
  8
SCALE
100
AcDbText
 10
14052.06988738461
 20
-6657.146595788612
 30
0.0
 40
24.0
  1
＠４５０
 50
0.0000000000000159
 72
     4
 11
14104.86988738461
 21
-6645.146595788611
 31
0.0
100
AcDbText
  0
LWPOLYLINE
  5
45D5862FBB0129
330
45D5862FB9AFAE
100
AcDbEntity
  8
SCALE
100
AcDbPolyline
 90
        2
 70
     0
 43
0.0
 10
14054.40315054231
 20
-6666.647119170808
 10
14068.89203793665
 20
-6670.529404847346
  0
LWPOLYLINE
  5
45D5862FBB012A
330
45D5862FB9AFAE
100
AcDbEntity
  8
SCALE
100
AcDbPolyline
 90
        2
 70
     0
 43
0.0
 10
14054.40315054231
 20
-6666.647119170808
 10
14068.89203793665
 20
-6662.764833494269
  0
LWPOLYLINE
  5
45D5862FBB012B
330
45D5862FB9AFAE
100
AcDbEntity
  8
SCALE
100
AcDbPolyline
 90
        2
 70
     0
 43
0.0
 10
14188.83623962748
 20
-6666.647119170808
 10
14136.55098186319
 20
-6666.647119170808
  0
LWPOLYLINE
  5
45D5862FBB0140
330
45D5862FB9AFAE
100
AcDbEntity
  8
TXT1
100
AcDbPolyline
 90
        2
 70
     0
 43
0.0
 10
14671.42576408634
 20
-6925.665114561251
 10
14590.65451197593
 20
-6784.966804433445
  0
DIMENSION
  5
45D5862FBB0141
330
45D5862FB9AFAE
100
AcDbEntity
  8
SCALE
100
AcDbDimension
  2
*D23
 10
14787.02553500058
 20
-6666.397483450097
 30
0.0
 11
14682.93088731403
 21
-6642.397483450096
 31
0.0
 70
    32
  1
※
 71
     5
 42
208.1892953731021
  3
STANDARD
100
AcDbAlignedDimension
 13
14578.83623962748
 23
-6747.428218414947
 33
0.0
 14
14787.02553500058
 24
-6747.428218414947
 34
0.0
100
AcDbRotatedDimension
  0
LWPOLYLINE
  5
45D5862FBB0142
330
45D5862FB9AFAE
100
AcDbEntity
  8
YAKUMONO
  6
Continuous
100
AcDbPolyline
 90
        2
 70
     0
 43
0.0
 10
14511.16097299249
 20
-6926.403434609404
 10
14777.7032670073
 20
-6926.403434609404
  0
LWPOLYLINE
  5
45D5862FBB0143
330
45D5862FB9AFAE
100
AcDbEntity
  8
YAKUMONO
  6
Continuous
100
AcDbPolyline
 90
        2
 70
     0
 43
0.0
 10
14511.16097299249
 20
-6927.203434609404
 10
14777.7032670073
 20
-6927.203434609403
  0
TEXT
  5
45D5862FBB0146
330
45D5862FB9AFAE
100
AcDbEntity
  8
TXT1
100
AcDbText
 10
14317.53039121509
 20
-7459.530357986179
 30
0.0
 40
30.0
  1
流れ方向取合納まり図（１）
 72
     4
 11
14539.53039121509
 21
-7444.53035798618
 31
0.0
100
AcDbText
  0
LWPOLYLINE
  5
45D5862FBB0148
330
45D5862FB9AFAE
100
AcDbEntity
  8
TXT1
100
AcDbPolyline
 90
        2
 70
     0
 43
0.0
 10
14359.92335513113
 20
-7145.269537462275
 10
14323.15763615778
 20
-7060.2015895521
  0
TEXT
  5
45D5862FBB0149
330
45D5862FB9AFAE
100
AcDbEntity
  8
TXT1
100
AcDbText
 10
14367.15779531946
 20
-7140.994737143846
 30
0.0
 40
24.0
  1
モヤ
 11
14367.15779531946
 21
-7128.994737143847
 31
0.0
100
AcDbText
 73
     2
  0
LWPOLYLINE
  5
45D5862FBB014A
330
45D5862FB9AFAE
100
AcDbEntity
  8
CENTER
100
AcDbPolyline
 90
        2
 70
     0
 43
0.0
 10
14578.83623962748
 20
-6759.357544021852
 10
14578.83623962748
 20
-7129.061144186801
  0
TEXT
  5
45D5862FBB014B
330
45D5862FB9AFAE
100
AcDbEntity
  8
TXT1
100
AcDbText
 10
14354.36506615102
 20
-7176.066273851827
 30
0.0
 40
24.0
  1
（鉄骨工事）
 11
14354.36506615102
 21
-7164.066273851826
 31
0.0
100
AcDbText
 73
     2
  0
LWPOLYLINE
  5
45D5862FBB014C
330
45D5862FB9AFAE
100
AcDbEntity
  8
TXT1
100
AcDbPolyline
 90
        2
 70
     0
 43
0.0
 10
14359.92335513113
 20
-7145.269537462275
 10
14513.9729650315
 20
-7145.269537462275
  0
TEXT
  5
45D5862FBB014F
330
45D5862FB9AFAE
100
AcDbEntity
  8
TXT1
100
AcDbText
 10
14406.1712981753
 20
-6779.435639816599
 30
0.0
 40
24.0
  1
ケラバ取合水切
 11
14406.1712981753
 21
-6767.4356398166
 31
0.0
100
AcDbText
 73
     2
  0
LWPOLYLINE
  5
45D5862FBB0150
330
45D5862FB9AFAE
100
AcDbEntity
  8
TXT1
100
AcDbPolyline
 90
        2
 70
     0
 43
0.0
 10
14406.52408429361
 20
-6784.966804433445
 10
14590.65451197593
 20
-6784.966804433445
  0
LWPOLYLINE
  5
45D5862FBB0155
330
45D5862FB9AFAE
100
AcDbEntity
  8
TXT1
100
AcDbPolyline
 90
        2
 70
     0
 43
0.0
 10
14412.65679681473
 20
-6869.781213579878
 10
14459.35358123772
 20
-6975.404525046049
  0
INSERT
  5
45D5862FBB01D1
330
45D5862FB9AFAE
100
AcDbEntity
  8
TXT1
100
AcDbBlockReference
  2
DOT
 10
14323.06085520662
 20
-7060.017305648668
 30
0.0
 41
-5.0
 42
5.0
 43
5.0
 50
314.9999999999999
  0
LWPOLYLINE
  5
45D5862FBB01E3
330
45D5862FB9AFAE
100
AcDbEntity
  8
YAKUMONO
100
AcDbPolyline
 90
        2
 70
     0
 43
0.0
 10
14511.16097299249
 20
-6926.403434609404
 42
0.4142135623730943
 10
14509.56097299248
 20
-6928.003434609404
  0
LWPOLYLINE
  5
45D5862FBB01E4
330
45D5862FB9AFAE
100
AcDbEntity
  8
YAKUMONO
100
AcDbPolyline
 90
        2
 70
     0
 43
0.0
 10
14511.16097299249
 20
-6927.203434609404
 42
0.414213562373094
 10
14510.36097299249
 20
-6928.003434609405
  0
LWPOLYLINE
  5
45D5862FBB01ED
330
45D5862FB9AFAE
100
AcDbEntity
  8
YAKUMONO
100
AcDbPolyline
 90
        2
 70
     0
 43
0.0
 10
14513.30815431569
 20
-6968.430886269485
 10
14513.98294425044
 20
-6968.860605414928
  0
LWPOLYLINE
  5
45D5862FBB01EE
330
45D5862FB9AFAE
100
AcDbEntity
  8
YAKUMONO
100
AcDbPolyline
 90
        2
 70
     0
 43
0.0
 10
14509.56097299248
 20
-6971.342865730196
 42
0.7502089494246592
 10
14511.95750663645
 20
-6972.041159341543
  0
LWPOLYLINE
  5
45D5862FBB01EF
330
45D5862FB9AFAE
100
AcDbEntity
  8
YAKUMONO
100
AcDbPolyline
 90
        2
 70
     0
 43
0.0
 10
14510.36097299249
 20
-6971.342865730196
 42
0.7502089494246738
 10
14511.2827167017
 20
-6971.611440196099
  0
LWPOLYLINE
  5
45D5862FBB01F0
330
45D5862FB9AFAE
100
AcDbEntity
  8
YAKUMONO
100
AcDbPolyline
 90
        2
 70
     0
 43
0.0
 10
14511.2827167017
 20
-6971.611440196099
 10
14513.30815431569
 20
-6968.430886269485
  0
LWPOLYLINE
  5
45D5862FBB01F1
330
45D5862FB9AFAE
100
AcDbEntity
  8
YAKUMONO
100
AcDbPolyline
 90
        2
 70
     0
 43
0.0
 10
14511.95750663645
 20
-6972.041159341543
 10
14513.98294425044
 20
-6968.860605414928
  0
INSERT
  5
45D5862FBB01F2
330
45D5862FB9AFAE
100
AcDbEntity
  8
URAUCHI
100
AcDbBlockReference
  2
BISU4
 10
14578.83623962748
 20
-6926.403434609404
 30
0.0
 50
270.0
  0
LWPOLYLINE
  5
45D5862FBB01F5
330
45D5862FB9AFAE
100
AcDbEntity
  8
YAKUMONO
100
AcDbPolyline
 90
        2
 70
     0
 43
0.0
 10
14510.36097299249
 20
-6928.003434609405
 10
14510.36097299249
 20
-6971.342865730196
  0
LWPOLYLINE
  5
45D5862FBB01F6
330
45D5862FB9AFAE
100
AcDbEntity
  8
YAKUMONO
100
AcDbPolyline
 90
        2
 70
     0
 43
0.0
 10
14509.56097299248
 20
-6928.003434609404
 10
14509.56097299248
 20
-6971.342865730196
  0
INSERT
  5
45D5862FBB01F7
330
45D5862FB9AFAE
100
AcDbEntity
  8
TXT1
100
AcDbBlockReference
  2
DOT
 10
14459.58674782791
 20
-6975.265094547602
 30
0.0
 41
-5.0
 42
5.0
 43
5.0
 50
314.9999999999999
  0
LWPOLYLINE
  5
45D5862FBB029B
330
45D5862FB9AFAE
100
AcDbEntity
  8
CENTER
100
AcDbPolyline
 90
        2
 70
     0
 43
0.0
 10
14578.83623962748
 20
-6917.287762041485
 10
14578.83623962748
 20
-6989.486953354426
  0
LWPOLYLINE
  5
45D5862FBB0315
330
45D5862FB9AFAE
100
AcDbEntity
  8
TOURISHIN
100
AcDbPolyline
 90
        2
 70
     0
 43
0.0
 10
14836.88379800059
 20
-7227.269695202004
 10
14836.88379800059
 20
-6543.588371523448
  0
LWPOLYLINE
  5
45D5862FBB0319
330
45D5862FB9AFAE
100
AcDbEntity
  8
TXT1
100
AcDbPolyline
 90
        2
 70
     0
 43
0.0
 10
14876.30812923115
 20
-6672.739048052362
 10
14906.06346043477
 20
-6620.907180794448
  0
TEXT
  5
45D5862FBB031A
330
45D5862FB9AFAE
100
AcDbEntity
  8
TXT1
100
AcDbText
 10
14878.53125010938
 20
-6757.409142420161
 30
0.0
 40
24.0
  1
（別途工事）
100
AcDbText
  0
TEXT
  5
45D5862FBB031B
330
45D5862FB9AFAE
100
AcDbEntity
  8
TXT1
100
AcDbText
 10
14851.87759932513
 20
-6724.90880254509
 30
0.0
 40
24.0
  1
シ－リング及び欠込
 11
14851.87759932513
 21
-6712.90880254509
 31
0.0
100
AcDbText
 73
     2
  0
LWPOLYLINE
  5
45D5862FBB031C
330
45D5862FB9AFAE
100
AcDbEntity
  8
TXT1
100
AcDbPolyline
 90
        2
 70
     0
 43
0.0
 10
14839.5246888517
 20
-6728.237838017488
 10
15108.52676292347
 20
-6728.237838017488
  0
TEXT
  5
45D5862FBB031D
330
45D5862FB9AFAE
100
AcDbEntity
  8
TXT1
100
AcDbText
 10
14814.92490943447
 20
-6923.414406676815
 30
0.0
 40
24.0
  1
シ－リングテ－プ
 11
14814.92490943447
 21
-6911.414406676815
 31
0.0
100
AcDbText
 73
     2
  0
LWPOLYLINE
  5
45D5862FBB031E
330
45D5862FB9AFAE
100
AcDbEntity
  8
TXT1
100
AcDbPolyline
 90
        2
 70
     0
 43
0.0
 10
14813.68507512523
 20
-6926.414406676816
 10
15041.82060517771
 20
-6926.414406676816
  0
LWPOLYLINE
  5
45D5862FBB0320
330
45D5862FB9AFAE
100
AcDbEntity
  8
TXT1
100
AcDbPolyline
 90
        2
 70
     0
 43
0.0
 10
14794.04165274261
 20
-6807.466352530103
 10
14839.5246888517
 20
-6728.237838017488
  0
LWPOLYLINE
  5
45D5862FBB0321
330
45D5862FB9AFAE
100
AcDbEntity
  8
ALC
100
AcDbPolyline
 90
        2
 70
     0
 43
0.0
 10
14786.88379800058
 20
-6594.671028284669
 10
14786.88379800058
 20
-6806.40705369304
  0
LWPOLYLINE
  5
45D5862FBB0322
330
45D5862FB9AFAE
100
AcDbEntity
  8
ALC
100
AcDbPolyline
 90
        2
 70
     0
 43
0.0
 10
14886.88379800058
 20
-6594.671028284669
 10
14886.88379800058
 20
-7037.186461770382
  0
LWPOLYLINE
  5
45D5862FBB0323
330
45D5862FB9AFAE
100
AcDbEntity
  8
YAKUMONO
100
AcDbPolyline
 90
        2
 70
     0
 43
0.0
 10
14765.24066719983
 20
-6826.403434609403
 10
14799.64986125285
 20
-6826.403434609403
  0
LWPOLYLINE
  5
45D5862FBB0324
330
45D5862FB9AFAE
100
AcDbEntity
  8
YAKUMONO
100
AcDbPolyline
 90
        2
 70
     0
 43
0.0
 10
14766.04066719982
 20
-6827.203434609405
 10
14800.44986125285
 20
-6827.203434609405
  0
LWPOLYLINE
  5
45D5862FBB0325
330
45D5862FB9AFAE
100
AcDbEntity
  8
TXT1
100
AcDbPolyline
 90
        2
 70
     0
 43
0.0
 10
14774.46112174933
 20
-6858.088810473617
 10
14813.68507512523
 20
-6926.414406676816
  0
LWPOLYLINE
  5
45D5862FBB032E
330
45D5862FB9AFAE
100
AcDbEntity
  8
SEAL
100
AcDbPolyline
 90
        4
 70
     1
 43
0.0
 10
14766.04066719982
 20
-6866.393757471013
 10
14778.5032670073
 20
-6866.393757471013
 10
14778.5032670073
 20
-6846.393757471012
 10
14766.04066719982
 20
-6846.393757471012
1001
ACAD
1000
ASC_BOUNDS
1002
{
1070
    16
1002
}
  0
INSERT
  5
45D5862FBB032F
330
45D5862FB9AFAE
100
AcDbEntity
  8
SEAL
100
AcDbBlockReference
  2
*X19
 10
14066.42694735445
 20
-7814.954313278379
 30
0.0
 50
0.0000000000000159
1001
ACAD
1000
HATCH
1002
{
1070
    16
1000
_U,_I
1040
1.0
1040
1.570796326794896
1070
     0
1002
}
  0
INSERT
  5
45D5862FBB0330
330
45D5862FB9AFAE
100
AcDbEntity
  8
TXT1
100
AcDbBlockReference
  2
DOT
 10
14774.43859996343
 20
-6858.354126548826
 30
0.0
 41
-5.0
 42
5.0
 43
5.0
 50
314.9999999999999
  0
LWPOLYLINE
  5
45D5862FBB0331
330
45D5862FB9AFAE
100
AcDbEntity
  8
YAKUMONO
100
AcDbPolyline
 90
        2
 70
     0
 43
0.0
 10
14769.3032670073
 20
-6834.721126063029
 10
14769.3032670073
 20
-6833.921126063028
  0
LWPOLYLINE
  5
45D5862FBB0332
330
45D5862FB9AFAE
100
AcDbEntity
  8
YAKUMONO
100
AcDbPolyline
 90
        2
 70
     0
 43
0.0
 10
14769.3032670073
 20
-6834.721126063029
 10
14778.5032670073
 20
-6834.721126063029
  0
LWPOLYLINE
  5
45D5862FBB0333
330
45D5862FB9AFAE
100
AcDbEntity
  8
YAKUMONO
100
AcDbPolyline
 90
        2
 70
     0
 43
0.0
 10
14769.3032670073
 20
-6833.921126063028
 10
14779.3032670073
 20
-6833.921126063028
  0
LWPOLYLINE
  5
45D5862FBB0334
330
45D5862FB9AFAE
100
AcDbEntity
  8
YAKUMONO
100
AcDbPolyline
 90
        2
 70
     0
 43
0.0
 10
14773.87196710357
 20
-6876.371421376529
 10
14773.17914678054
 20
-6875.971421376533
  0
LWPOLYLINE
  5
45D5862FBB0335
330
45D5862FB9AFAE
100
AcDbEntity
  8
YAKUMONO
100
AcDbPolyline
 90
        2
 70
     0
 43
0.0
 10
14765.24066719983
 20
-6884.603579891548
 42
0.7673269879789616
 10
14768.59951292664
 20
-6885.503579891547
  0
LWPOLYLINE
  5
45D5862FBB0336
330
45D5862FB9AFAE
100
AcDbEntity
  8
YAKUMONO
100
AcDbPolyline
 90
        2
 70
     0
 43
0.0
 10
14766.04066719982
 20
-6884.603579891548
 42
0.7673269879789616
 10
14767.90669260361
 20
-6885.103579891546
  0
LWPOLYLINE
  5
45D5862FBB0337
330
45D5862FB9AFAE
100
AcDbEntity
  8
YAKUMONO
100
AcDbPolyline
 90
        2
 70
     0
 43
0.0
 10
14773.87196710357
 20
-6876.371421376529
 10
14768.59951292664
 20
-6885.503579891547
  0
LWPOLYLINE
  5
45D5862FBB0338
330
45D5862FB9AFAE
100
AcDbEntity
  8
YAKUMONO
100
AcDbPolyline
 90
        2
 70
     0
 43
0.0
 10
14773.17914678054
 20
-6875.971421376533
 10
14767.90669260361
 20
-6885.103579891546
  0
LWPOLYLINE
  5
45D5862FBB0339
330
45D5862FB9AFAE
100
AcDbEntity
  8
YAKUMONO
100
AcDbPolyline
 90
        2
 70
     0
 43
0.0
 10
14765.24066719983
 20
-6884.603579891548
 10
14765.24066719983
 20
-6826.403434609403
  0
LWPOLYLINE
  5
45D5862FBB033A
330
45D5862FB9AFAE
100
AcDbEntity
  8
YAKUMONO
100
AcDbPolyline
 90
        2
 70
     0
 43
0.0
 10
14766.04066719982
 20
-6884.603579891548
 10
14766.04066719982
 20
-6827.203434609405
1001
ACAD
1000
ASC_BOUNDS
1002
{
1070
    16
1002
}
  0
LWPOLYLINE
  5
45D5862FBB033B
330
45D5862FB9AFAE
100
AcDbEntity
  8
YAKUMONO
100
AcDbPolyline
 90
        2
 70
     0
 43
0.0
 10
14777.7032670073
 20
-6927.203434609404
 42
0.4142135623730946
 10
14779.3032670073
 20
-6925.603434609405
  0
LWPOLYLINE
  5
45D5862FBB033C
330
45D5862FB9AFAE
100
AcDbEntity
  8
YAKUMONO
100
AcDbPolyline
 90
        2
 70
     0
 43
0.0
 10
14777.7032670073
 20
-6926.403434609404
 42
0.4142135623730966
 10
14778.5032670073
 20
-6925.603434609405
  0
LWPOLYLINE
  5
45D5862FBB033D
330
45D5862FB9AFAE
100
AcDbEntity
  8
SETSUBAN
100
AcDbPolyline
 90
        2
 70
     0
 43
0.0
 10
14769.44716241086
 20
-6944.839396496821
 10
14769.44716241086
 20
-6944.839396496821
  0
LWPOLYLINE
  5
45D5862FBB033E
330
45D5862FB9AFAE
100
AcDbEntity
  8
SETSUBAN
100
AcDbPolyline
 90
        2
 70
     0
 43
0.0
 10
14769.44716241086
 20
-6944.839396496821
 10
14769.44716241086
 20
-6944.839396496821
  0
LWPOLYLINE
  5
45D5862FBB033F
330
45D5862FB9AFAE
100
AcDbEntity
  8
SETSUBAN
100
AcDbPolyline
 90
        2
 70
     0
 43
0.0
 10
14769.44716241086
 20
-6944.839396496821
 10
14769.44716241086
 20
-6944.839396496821
  0
LWPOLYLINE
  5
45D5862FBB0340
330
45D5862FB9AFAE
100
AcDbEntity
  8
SETSUBAN
100
AcDbPolyline
 90
        2
 70
     0
 43
0.0
 10
14769.44716241086
 20
-6944.839396496821
 10
14769.44716241086
 20
-6944.839396496821
  0
LWPOLYLINE
  5
45D5862FBB0341
330
45D5862FB9AFAE
100
AcDbEntity
  8
YAKUMONO
100
AcDbPolyline
 90
        2
 70
     0
 43
0.0
 10
14779.3032670073
 20
-6925.603434609405
 10
14779.3032670073
 20
-6833.921126063028
  0
LWPOLYLINE
  5
45D5862FBB0342
330
45D5862FB9AFAE
100
AcDbEntity
  8
YAKUMONO
100
AcDbPolyline
 90
        2
 70
     0
 43
0.0
 10
14778.5032670073
 20
-6925.603434609405
 10
14778.5032670073
 20
-6834.721126063029
  0
LWPOLYLINE
  5
45D5862FBB0343
330
45D5862FB9AFAE
100
AcDbEntity
  8
SETSUBAN
100
AcDbPolyline
 90
        2
 70
     0
 43
0.0
 10
14742.12481526089
 20
-7072.816979450691
 10
14742.12481526089
 20
-7072.816979450691
  0
LWPOLYLINE
  5
45D5862FBB0344
330
45D5862FB9AFAE
100
AcDbEntity
  8
SETSUBAN
100
AcDbPolyline
 90
        2
 70
     0
 43
0.0
 10
14742.12481526089
 20
-7072.816979450691
 10
14742.12481526089
 20
-7072.816979450691
  0
INSERT
  5
45D5862FBB0346
330
45D5862FB9AFAE
100
AcDbEntity
  8
SCALE
100
AcDbBlockReference
  2
DOT
 10
14671.51775389805
 20
-6926.143999751179
 30
0.0
 41
-2.5
 42
2.5
 43
2.5
 50
119.8590161649231
  0
INSERT
  5
45D5862FBB0347
330
45D5862FB9AFAE
100
AcDbEntity
  8
TXT1
100
AcDbBlockReference
  2
DOT
 10
14671.42576408634
 20
-6925.665114561251
 30
0.0
 41
-5.0
 42
5.0
 43
5.0
 50
314.9999999999999
  0
INSERT
  5
45D5862FBB0354
330
45D5862FB9AFAE
100
AcDbEntity
  8
TXT1
100
AcDbBlockReference
  2
DOT
 10
14793.75265556372
 20
-6808.158352663085
 30
0.0
 41
-5.0
 42
5.0
 43
5.0
 50
314.9999999999999
  0
LWPOLYLINE
  5
45D5862FBB0355
330
45D5862FB9AFAE
100
AcDbEntity
  8
ALC
100
AcDbPolyline
 90
        2
 70
     0
 43
0.0
 10
14801.88379800058
 20
-6806.403434609404
 10
14786.88379800058
 20
-6806.403434609404
  0
LWPOLYLINE
  5
45D5862FBB0356
330
45D5862FB9AFAE
100
AcDbEntity
  8
ALC
100
AcDbPolyline
 90
        2
 70
     0
 43
0.0
 10
14786.88379800058
 20
-6815.975879352047
 10
14801.88379800058
 20
-6815.975879352047
  0
LWPOLYLINE
  5
45D5862FBB0357
330
45D5862FB9AFAE
100
AcDbEntity
  8
YAKUMONO
100
AcDbPolyline
 90
        2
 70
     0
 43
0.0
 10
14800.44986125285
 20
-6809.300490884251
 42
0.6681786379193007
 10
14798.40133311542
 20
-6808.451962746828
1001
ACAD
1000
ASC_BOUNDS
1002
{
1070
    16
1002
}
  0
LWPOLYLINE
  5
45D5862FBB0358
330
45D5862FB9AFAE
100
AcDbEntity
  8
YAKUMONO
100
AcDbPolyline
 90
        2
 70
     0
 43
0.0
 10
14799.64986125285
 20
-6809.541912240492
 42
0.6681786379193083
 10
14798.79630786225
 20
-6809.188358849894
1001
ACAD
1000
ASC_BOUNDS
1002
{
1070
    16
1002
}
  0
LWPOLYLINE
  5
45D5862FBB0359
330
45D5862FB9AFAE
100
AcDbEntity
  8
YAKUMONO
100
AcDbPolyline
 90
        2
 70
     0
 43
0.0
 10
14796.185789162
 20
-6810.667506700252
 10
14796.75147458695
 20
-6811.233192125204
1001
ACAD
1000
ASC_BOUNDS
1002
{
1070
    16
1002
}
  0
LWPOLYLINE
  5
45D5862FBB035A
330
45D5862FB9AFAE
100
AcDbEntity
  8
YAKUMONO
100
AcDbPolyline
 90
        2
 70
     0
 43
0.0
 10
14798.79630786225
 20
-6809.188358849898
 10
14796.75147458695
 20
-6811.233192125204
1001
ACAD
1000
ASC_BOUNDS
1002
{
1070
    16
1002
}
  0
LWPOLYLINE
  5
45D5862FBB035B
330
45D5862FB9AFAE
100
AcDbEntity
  8
YAKUMONO
100
AcDbPolyline
 90
        2
 70
     0
 43
0.0
 10
14798.40133311542
 20
-6808.451962746828
 10
14796.185789162
 20
-6810.667506700252
1001
ACAD
1000
ASC_BOUNDS
1002
{
1070
    16
1002
}
  0
LWPOLYLINE
  5
45D5862FBB035D
330
45D5862FB9AFAE
100
AcDbEntity
  8
ALC
100
AcDbPolyline
 90
        2
 70
     0
 43
0.0
 10
14801.88379800058
 20
-6826.403434609403
 10
14786.88379800058
 20
-6826.403434609403
  0
LWPOLYLINE
  5
45D5862FBB035E
330
45D5862FB9AFAE
100
AcDbEntity
  8
SEAL
100
AcDbPolyline
 90
        4
 70
     0
 43
0.0
 10
14786.88379800058
 20
-6806.403434609404
 10
14801.88379800058
 20
-6806.403434609404
 10
14801.88379800058
 20
-6826.403434609403
 10
14786.88379800058
 20
-6826.403434609403
  0
INSERT
  5
45D5862FBB035F
330
45D5862FB9AFAE
100
AcDbEntity
  8
SEAL
100
AcDbBlockReference
  2
*X21
 10
14044.00747834774
 20
-7791.27758150186
 30
0.0
 50
0.0000000000000159
1001
ACAD
1000
HATCH
1002
{
1070
    16
1000
_U
1040
1.0
1040
1.570796326794896
1070
     0
1002
}
  0
LWPOLYLINE
  5
45D5862FBB0360
330
45D5862FB9AFAE
100
AcDbEntity
  8
SEAL
100
AcDbPolyline
 90
        2
 70
     0
 43
0.0
 10
14786.88379800058
 20
-6826.403434609403
 42
0.3124131182383663
 10
14786.88379800058
 20
-6806.403434609404
  0
LWPOLYLINE
  5
45D5862FBB0361
330
45D5862FB9AFAE
100
AcDbEntity
  8
YAKUMONO
100
AcDbPolyline
 90
        2
 70
     0
 43
0.0
 10
14799.64986125285
 20
-6826.403434609403
 10
14799.64986125285
 20
-6809.541912240492
1001
ACAD
1000
ASC_BOUNDS
1002
{
1070
    16
1002
}
  0
LWPOLYLINE
  5
45D5862FBB0362
330
45D5862FB9AFAE
100
AcDbEntity
  8
YAKUMONO
100
AcDbPolyline
 90
        2
 70
     0
 43
0.0
 10
14800.44986125285
 20
-6827.203434609405
 10
14800.44986125285
 20
-6809.300490884254
1001
ACAD
1000
ASC_BOUNDS
1002
{
1070
    16
1002
}
  0
LWPOLYLINE
  5
45D5862FBB0363
330
45D5862FB9AFAE
100
AcDbEntity
  8
ALC
100
AcDbPolyline
 90
        2
 70
     0
 43
0.0
 10
14801.88379800058
 20
-6826.403434609403
 10
14801.88379800058
 20
-6806.403434609404
  0
INSERT
  5
45D5862FBB0364
330
45D5862FB9AFAE
100
AcDbEntity
  8
MENDO
100
AcDbBlockReference
  2
00000004
 10
14871.85576581512
 20
-6856.500548719806
 30
0.0
 41
-1.0
 50
0.0000000000000159
  0
LWPOLYLINE
  5
45D5862FBB0367
330
45D5862FB9AFAE
100
AcDbEntity
  8
ALC
 62
     0
100
AcDbPolyline
 90
        2
 70
     0
 43
0.0
 10
14786.88379800058
 20
-7018.726004955782
 10
14886.88379800058
 20
-6918.726004955782
  0
LWPOLYLINE
  5
45D5862FBB036B
330
45D5862FB9AFAE
100
AcDbEntity
  8
ALC
100
AcDbPolyline
 90
        2
 70
     0
 43
0.0
 10
14886.88379800058
 20
-7037.186461770382
 10
14871.95274365813
 20
-7052.186461770382
  0
LWPOLYLINE
  5
45D5862FBB036C
330
45D5862FB9AFAE
100
AcDbEntity
  8
ALC
100
AcDbPolyline
 90
        2
 70
     0
 43
0.0
 10
14786.88379800058
 20
-7037.186461770382
 10
14801.81485234303
 20
-7052.186461770382
  0
LWPOLYLINE
  5
45D5862FBB036D
330
45D5862FB9AFAE
100
AcDbEntity
  8
ALC
100
AcDbPolyline
 90
        2
 70
     0
 43
0.0
 10
14801.81485234303
 20
-7052.186461770382
 10
14871.95274365813
 20
-7052.186461770382
  0
LWPOLYLINE
  5
45D5862FBB036E
330
45D5862FB9AFAE
100
AcDbEntity
  8
DOUBUCHI
100
AcDbPolyline
 90
        9
 70
     1
 43
0.0
 10
14878.38379800058
 20
-7052.186461770382
 10
14826.88379800058
 20
-7052.186461770382
 42
0.4142135623730951
 10
14822.88379800058
 20
-7056.186461770382
 10
14822.88379800058
 20
-7058.186461770382
 10
14892.88379800058
 20
-7058.186461770382
 10
14892.88379800058
 20
-6988.186461770384
 10
14890.88379800058
 20
-6988.186461770384
 42
0.4142135623730951
 10
14886.88379800058
 20
-6992.186461770382
 10
14886.88379800058
 20
-7043.686461770382
 42
-0.4142135623730951
  0
LWPOLYLINE
  5
45D5862FBB036F
330
45D5862FB9AFAE
100
AcDbEntity
  8
ALC
100
AcDbPolyline
 90
        2
 70
     0
 43
0.0
 10
14786.88379800058
 20
-6827.172864436244
 10
14786.88379800058
 20
-7037.186461770382
  0
LWPOLYLINE
  5
45D5862FBB0370
330
45D5862FB9AFAE
100
AcDbEntity
  8
ALC
 62
     0
100
AcDbPolyline
 90
        2
 70
     0
 43
0.0
 10
14786.88379800058
 20
-7028.72600495578
 10
14886.88379800058
 20
-6928.72600495578
  0
INSERT
  5
45D5862FBB0371
330
45D5862FB9AFAE
100
AcDbEntity
  8
TXT1
100
AcDbBlockReference
  2
DOT
 10
14876.31218530059
 20
-6672.125095856223
 30
0.0
 41
-5.0
 42
5.0
 43
5.0
 50
314.9999999999999
  0
LWPOLYLINE
  5
45D5862FBB0372
330
45D5862FB9AFAE
100
AcDbEntity
  8
ALC
 62
     0
100
AcDbPolyline
 90
        2
 70
     0
 43
0.0
 10
14786.88379800058
 20
-6744.562581184739
 10
14886.88379800058
 20
-6644.562581184738
  0
LWPOLYLINE
  5
45D5862FBB0373
330
45D5862FB9AFAE
100
AcDbEntity
  8
ALC
 62
     0
100
AcDbPolyline
 90
        2
 70
     0
 43
0.0
 10
14786.88379800058
 20
-6734.562581184736
 10
14886.88379800058
 20
-6634.562581184738
  0
TEXT
  5
45D5862FBB0374
330
45D5862FB9AFAE
100
AcDbEntity
  8
TXT1
100
AcDbText
 10
14912.86612905428
 20
-6617.907180794446
 30
0.0
 40
24.0
  1
ＡＬＣ版
 11
14912.86612905428
 21
-6605.907180794446
 31
0.0
100
AcDbText
 73
     2
  0
LWPOLYLINE
  5
45D5862FBB0375
330
45D5862FB9AFAE
100
AcDbEntity
  8
TXT1
100
AcDbPolyline
 90
        2
 70
     0
 43
0.0
 10
14906.06346043477
 20
-6620.907180794448
 10
15024.93834462789
 20
-6620.907180794448
  0
DIMENSION
  5
45D5862FBB0378
330
45D5862FB9AFAE
100
AcDbEntity
  8
SCALE
100
AcDbDimension
  2
*D22
 10
15774.3167009647
 20
-6668.471637053198
 30
0.0
 11
15670.22205327815
 21
-6644.471637053197
 31
0.0
 70
    32
  1
※
 71
     5
 42
208.1892953731022
  3
STANDARD
100
AcDbAlignedDimension
 13
15566.1274055916
 23
-6749.502372018048
 33
0.0
 14
15774.3167009647
 24
-6749.502372018048
 34
0.0
100
AcDbRotatedDimension
  0
LWPOLYLINE
  5
45D5862FBB0386
330
45D5862FB9AFAE
100
AcDbEntity
  8
YAKUMONO
  6
Continuous
100
AcDbPolyline
 90
        2
 70
     0
 43
0.0
 10
15498.10172604259
 20
-6929.016456943306
 10
15772.77254015942
 20
-6929.016456943303
  0
LWPOLYLINE
  5
45D5862FBB0387
330
45D5862FB9AFAE
100
AcDbEntity
  8
YAKUMONO
  6
Continuous
100
AcDbPolyline
 90
        2
 70
     0
 43
0.0
 10
15498.10172604259
 20
-6928.216456943305
 10
15772.74462056043
 20
-6928.216456943305
  0
LWPOLYLINE
  5
45D5862FBB0388
330
45D5862FB9AFAE
100
AcDbEntity
  8
TXT1
100
AcDbPolyline
 90
        2
 70
     0
 43
0.0
 10
15660.0142087547
 20
-6925.788913963568
 10
15579.24295664428
 20
-6785.090603835762
  0
TEXT
  5
45D5862FBB0389
330
45D5862FB9AFAE
100
AcDbEntity
  8
TXT1
100
AcDbText
 10
15362.98068403485
 20
-7459.530357986179
 30
0.0
 40
30.0
  1
流れ方向取合納まり図（２）
 72
     4
 11
15584.98068403485
 21
-7444.53035798618
 31
0.0
100
AcDbText
  0
LWPOLYLINE
  5
45D5862FBB038B
330
45D5862FB9AFAE
100
AcDbEntity
  8
CENTER
100
AcDbPolyline
 90
        2
 70
     0
 43
0.0
 10
15566.1274055916
 20
-6758.870566355752
 10
15566.1274055916
 20
-7128.574166520704
  0
TEXT
  5
45D5862FBB04AA
330
45D5862FB9AFAE
100
AcDbEntity
  8
TXT1
100
AcDbText
 10
15382.7449742538
 20
-6778.293824600776
 30
0.0
 40
24.0
  1
ケラバ取合水切
 11
15382.7449742538
 21
-6766.293824600777
 31
0.0
100
AcDbText
 73
     2
  0
LWPOLYLINE
  5
45D5862FBB04B3
330
45D5862FB9AFAE
100
AcDbEntity
  8
TXT1
100
AcDbPolyline
 90
        2
 70
     0
 43
0.0
 10
15383.5928584639
 20
-6785.090603835762
 10
15579.24295664428
 20
-6785.090603835762
  0
LWPOLYLINE
  5
45D5862FBB0561
330
45D5862FB9AFAE
100
AcDbEntity
  8
YAKUMONO
100
AcDbPolyline
 90
        2
 70
     0
 43
0.0
 10
15498.89825968656
 20
-6974.481293172964
 10
15500.92369730053
 20
-6971.300739246347
  0
LWPOLYLINE
  5
45D5862FBB0562
330
45D5862FB9AFAE
100
AcDbEntity
  8
YAKUMONO
100
AcDbPolyline
 90
        2
 70
     0
 43
0.0
 10
15498.22346975181
 20
-6974.051574027519
 10
15500.2489073658
 20
-6970.871020100904
  0
LWPOLYLINE
  5
45D5862FBB0563
330
45D5862FB9AFAE
100
AcDbEntity
  8
YAKUMONO
100
AcDbPolyline
 90
        2
 70
     0
 43
0.0
 10
15497.30172604259
 20
-6973.782999561618
 42
0.7502089494246738
 10
15498.22346975181
 20
-6974.051574027519
  0
LWPOLYLINE
  5
45D5862FBB0564
330
45D5862FB9AFAE
100
AcDbEntity
  8
YAKUMONO
100
AcDbPolyline
 90
        2
 70
     0
 43
0.0
 10
15496.50172604259
 20
-6973.782999561618
 42
0.7502089494246592
 10
15498.89825968656
 20
-6974.481293172964
  0
LWPOLYLINE
  5
45D5862FBB0565
330
45D5862FB9AFAE
100
AcDbEntity
  8
YAKUMONO
100
AcDbPolyline
 90
        2
 70
     0
 43
0.0
 10
15500.2489073658
 20
-6970.871020100904
 10
15500.92369730053
 20
-6971.300739246347
  0
LWPOLYLINE
  5
45D5862FBB05BC
330
45D5862FB9AFAE
100
AcDbEntity
  8
YAKUMONO
100
AcDbPolyline
 90
        2
 70
     0
 43
0.0
 10
15498.10172604259
 20
-6929.016456943306
 42
0.4142135623730944
 10
15497.30172604259
 20
-6929.816456943306
  0
LWPOLYLINE
  5
45D5862FBB05BD
330
45D5862FB9AFAE
100
AcDbEntity
  8
YAKUMONO
100
AcDbPolyline
 90
        2
 70
     0
 43
0.0
 10
15498.10172604259
 20
-6928.216456943305
 42
0.4142135623730949
 10
15496.50172604259
 20
-6929.816456943306
  0
LWPOLYLINE
  5
45D5862FBB05CA
330
45D5862FB9AFAE
100
AcDbEntity
  8
YAKUMONO
100
AcDbPolyline
 90
        2
 70
     0
 43
0.0
 10
15496.50172604259
 20
-6929.816456943306
 10
15496.50172604259
 20
-6973.782999561618
  0
LWPOLYLINE
  5
45D5862FBB05CB
330
45D5862FB9AFAE
100
AcDbEntity
  8
YAKUMONO
100
AcDbPolyline
 90
        2
 70
     0
 43
0.0
 10
15497.30172604259
 20
-6929.816456943306
 10
15497.30172604259
 20
-6973.782999561618
  0
LWPOLYLINE
  5
45D5862FBB05E4
330
45D5862FB9AFAE
100
AcDbEntity
  8
TOURISHIN
100
AcDbPolyline
 90
        2
 70
     0
 43
0.0
 10
15831.26552005254
 20
-7215.446755648489
 10
15831.26552005254
 20
-6531.278454303834
  0
TEXT
  5
45D5862FBB05E6
330
45D5862FB9AFAE
100
AcDbEntity
  8
TXT1
100
AcDbText
 10
15833.17890742675
 20
-6672.740926424087
 30
0.0
 40
24.0
  1
角波鉄板
 11
15833.17890742675
 21
-6660.740926424089
 31
0.0
100
AcDbText
 73
     2
  0
LWPOLYLINE
  5
45D5862FBB05E7
330
45D5862FB9AFAE
100
AcDbEntity
  8
TXT1
100
AcDbPolyline
 90
        2
 70
     0
 43
0.0
 10
15830.36630442293
 20
-6681.470699503805
 10
15947.56139308613
 20
-6681.470699503805
  0
LWPOLYLINE
  5
45D5862FBB05E8
330
45D5862FB9AFAE
100
AcDbEntity
  8
TXT1
100
AcDbPolyline
 90
        2
 70
     0
 43
0.0
 10
15821.52392394994
 20
-6960.994881720927
 10
15988.08919281819
 20
-6960.994881720927
  0
TEXT
  5
45D5862FBB05E9
330
45D5862FB9AFAE
100
AcDbEntity
  8
TXT1
100
AcDbText
 10
15817.9502833266
 20
-6955.46369050123
 30
0.0
 40
24.0
  1
ケミカル面戸
 11
15817.9502833266
 21
-6943.463690501231
 31
0.0
100
AcDbText
 73
     2
  0
INSERT
  5
45D5862FBB05EA
330
45D5862FB9AFAE
100
AcDbEntity
  8
DOUBUCHI
100
AcDbBlockReference
  2
00000002
 10
15769.17084135378
 20
-6779.069736055396
 30
0.0
 41
-1.0
 50
180.0
  0
LWPOLYLINE
  5
45D5862FBB05EB
330
45D5862FB9AFAE
100
AcDbEntity
  8
YAKUMONO
100
AcDbPolyline
 90
        2
 70
     0
 43
0.0
 10
15773.5167009647
 20
-6778.216456943304
 10
15777.21614980867
 20
-6773.549461366433
  0
LWPOLYLINE
  5
45D5862FBB05EC
330
45D5862FB9AFAE
100
AcDbEntity
  8
YAKUMONO
100
AcDbPolyline
 90
        2
 70
     0
 43
0.0
 10
15774.3167009647
 20
-6778.495072017888
 10
15777.84307621129
 20
-6774.046415374053
  0
LWPOLYLINE
  5
45D5862FBB05ED
330
45D5862FB9AFAE
100
AcDbEntity
  8
KAKUNAMI
  6
DASHED
100
AcDbPolyline
 90
        2
 70
     0
 43
0.0
 10
15758.51670096469
 20
-6913.216456943304
 10
15758.51670096469
 20
-6604.787885247134
1001
ACAD
1000
ASC_BOUNDS
1002
{
1070
    16
1002
}
  0
LWPOLYLINE
  5
45D5862FBB05EE
330
45D5862FB9AFAE
100
AcDbEntity
  8
KAKUNAMI
100
AcDbPolyline
 90
        2
 70
     0
 43
0.0
 10
15772.5167009647
 20
-6913.216456943304
 10
15772.5167009647
 20
-6604.787885247134
1001
ACAD
1000
ASC_BOUNDS
1002
{
1070
    16
1002
}
  0
LWPOLYLINE
  5
45D5862FBB05EF
330
45D5862FB9AFAE
100
AcDbEntity
  8
KAKUNAMI
100
AcDbPolyline
 90
        2
 70
     0
 43
0.0
 10
15773.5167009647
 20
-6913.216456943304
 10
15773.5167009647
 20
-6604.787885247134
  0
LWPOLYLINE
  5
45D5862FBB05F0
330
45D5862FB9AFAE
100
AcDbEntity
  8
KAKUNAMI
100
AcDbPolyline
 90
        2
 70
     0
 43
0.0
 10
15757.5167009647
 20
-6913.216456943304
 10
15757.5167009647
 20
-6604.787885247134
1001
ACAD
1000
ASC_BOUNDS
1002
{
1070
    16
1002
}
  0
INSERT
  5
45D5862FBB0604
330
45D5862FB9AFAE
100
AcDbEntity
  8
TXT1
100
AcDbBlockReference
  2
DOT
 10
15660.60178516534
 20
-6926.859440974098
 30
0.0
 41
-5.0
 42
5.0
 43
5.0
 50
314.9999999999999
  0
LWPOLYLINE
  5
45D5862FBB0611
330
45D5862FB9AFAE
100
AcDbEntity
  8
MENDO
100
AcDbPolyline
 90
        4
 70
     1
 43
0.0
 10
15773.5167009647
 20
-6876.658767395177
 10
15773.5167009647
 20
-6896.658767395177
 10
15757.5167009647
 20
-6896.658767395177
 10
15757.5167009647
 20
-6876.658767395177
1001
ACAD
1000
ASC_BOUNDS
1002
{
1070
    16
1002
}
  0
INSERT
  5
45D5862FBB0612
330
45D5862FB9AFAE
100
AcDbEntity
  8
MENDO
100
AcDbBlockReference
  2
*X20
 10
14111.98982959389
 20
-7810.160731508041
 30
0.0
 50
0.0000000000000159
1001
ACAD
1000
HATCH
1002
{
1070
    16
1000
HONEY
1040
1.0
1040
12.12666371046983
1002
}
  0
INSERT
  5
45D5862FBB0613
330
45D5862FB9AFAE
100
AcDbEntity
  8
TXT1
100
AcDbBlockReference
  2
DOT
 10
15767.93714987259
 20
-6888.575274404127
 30
0.0
 41
-5.0
 42
5.0
 43
5.0
 50
314.9999999999999
  0
INSERT
  5
45D5862FBB0614
330
45D5862FB9AFAE
100
AcDbEntity
  8
MENDO
100
AcDbBlockReference
  2
00000005
 10
15818.24913198317
 20
-6825.895884328661
 30
0.0
 41
-1.0
 50
0.0000000000000159
  0
LWPOLYLINE
  5
45D5862FBB0618
330
45D5862FB9AFAE
100
AcDbEntity
  8
KAKUNAMI
100
AcDbPolyline
 90
        2
 70
     0
 43
0.0
 10
15773.5167009647
 20
-6913.216456943304
 10
15757.5167009647
 20
-6913.216456943304
  0
LWPOLYLINE
  5
45D5862FBB0619
330
45D5862FB9AFAE
100
AcDbEntity
  8
YAKUMONO
100
AcDbPolyline
 90
        2
 70
     0
 43
0.0
 10
15772.74462056205
 20
-6928.216456943305
 42
0.4040262258351567
 10
15773.5167009647
 20
-6927.41694428169
  0
LWPOLYLINE
  5
45D5862FBB061A
330
45D5862FB9AFAE
100
AcDbEntity
  8
YAKUMONO
100
AcDbPolyline
 90
        2
 70
     0
 43
0.0
 10
15772.77254015942
 20
-6929.016456943306
 42
0.4040262258351567
 10
15774.3167009647
 20
-6927.417431620073
  0
LWPOLYLINE
  5
45D5862FBB061B
330
45D5862FB9AFAE
100
AcDbEntity
  8
TXT1
100
AcDbPolyline
 90
        2
 70
     0
 43
0.0
 10
15768.08530543524
 20
-6888.438893860319
 10
15821.52392394994
 20
-6960.994881720927
  0
LWPOLYLINE
  5
45D5862FBB061E
330
45D5862FB9AFAE
100
AcDbEntity
  8
YAKUMONO
100
AcDbPolyline
 90
        2
 70
     0
 43
0.0
 10
15773.5167009647
 20
-6927.41694428169
 10
15773.5167009647
 20
-6778.216456943304
1001
ACAD
1000
ASC_BOUNDS
1002
{
1070
    16
1002
}
  0
LWPOLYLINE
  5
45D5862FBB061F
330
45D5862FB9AFAE
100
AcDbEntity
  8
YAKUMONO
100
AcDbPolyline
 90
        2
 70
     0
 43
0.0
 10
15774.3167009647
 20
-6927.417431620073
 10
15774.3167009647
 20
-6778.495072017888
  0
INSERT
  5
45D5862FBB0623
330
45D5862FB9AFAE
100
AcDbEntity
  8
TXT1
100
AcDbBlockReference
  2
DOT
 10
15767.93714987259
 20
-6733.575586377101
 30
0.0
 41
-5.0
 42
5.0
 43
5.0
 50
314.9999999999999
  0
LWPOLYLINE
  5
45D5862FBB0624
330
45D5862FB9AFAE
100
AcDbEntity
  8
YAKUMONO
100
AcDbPolyline
 90
        2
 70
     0
 43
0.0
 10
15777.21614980867
 20
-6773.549461366433
 10
15777.84307621129
 20
-6774.046415374053
  0
LWPOLYLINE
  5
45D5862FBB0625
330
45D5862FB9AFAE
100
AcDbEntity
  8
TXT1
100
AcDbPolyline
 90
        2
 70
     0
 43
0.0
 10
15768.08530543524
 20
-6733.992356216766
 10
15830.36630442293
 20
-6681.470699503805
  0
TEXT
  5
45D5862FBB15E7
330
45D5862FB9AFAE
100
AcDbEntity
  8
TXT1
100
AcDbText
 10
15515.79846279525
 20
-6125.216198418439
 30
0.0
 40
35.0
  1
ＪＦＥルーフ ロック50
 11
15515.79846279525
 21
-6129.882865085106
 31
0.0
100
AcDbText
 73
     1
  0
DIMENSION
  5
45D5862FBB160F
330
45D5862FB9AFAE
100
AcDbEntity
  8
TXT1
100
AcDbDimension
  2
*D24
 10
14702.33442575683
 20
-6926.403434609404
 30
0.0
 11
14678.33442575684
 21
-6876.4034346094
 31
0.0
 70
    32
 71
     5
 42
99.99999999999909
  3
STANDARD
100
AcDbAlignedDimension
 13
14776.08379800058
 23
-6826.403434609403
 33
0.0
 14
14776.08379800058
 24
-6926.403434609404
 34
0.0
 50
90.0
100
AcDbRotatedDimension
1001
ACAD
1000
DSTYLE
1002
{
1070
   341
1005
45D5862FB9B039
1070
   343
1005
45D5862FB9B039
1070
   344
1005
45D5862FB9B039
1002
}
  0
DIMENSION
  5
45D5862FBB1629
330
45D5862FB9AFAE
100
AcDbEntity
  8
TXT1
100
AcDbDimension
  2
*D25
 10
14702.33442575683
 20
-6826.403434609403
 30
0.0
 11
14677.83442575683
 21
-6816.4034346094
 31
0.0
 70
    32
 71
     5
 42
20.00000000000091
  3
STANDARD
100
AcDbAlignedDimension
 13
14786.88379800058
 23
-6806.403434609404
 33
0.0
 14
14786.88379800058
 24
-6826.403434609403
 34
0.0
 50
90.0
100
AcDbRotatedDimension
1001
ACAD
1000
DSTYLE
1002
{
1070
   341
1005
45D5862FB9B039
1070
   343
1005
45D5862FB9B039
1070
   344
1005
45D5862FB9B039
1002
}
  0
INSERT
  5
45D5862FBB1C53
330
45D5862FB9AFAE
100
AcDbEntity
  8
TABUZAI
100
AcDbBlockReference
  2
00000005
 10
14597.23414062748
 20
-7036.435865609404
 30
0.0
 41
-1.0
 50
270.0
  0
INSERT
  5
45D5862FBB1C54
330
45D5862FB9AFAE
100
AcDbEntity
  8
URABARI
100
AcDbBlockReference
  2
*X27
 10
15045.42463562748
 20
-7898.954896609405
 30
0.0
 41
-1.0
1001
ACAD
1000
HATCH
1002
{
1070
    16
1000
ANSI31
1040
1.0
1040
0.0
1002
}
  0
INSERT
  5
45D5862FBB1C55
330
45D5862FB9AFAE
100
AcDbEntity
  8
URABARI
100
AcDbBlockReference
  2
*X28
 10
15045.42463562748
 20
-7898.954896609405
 30
0.0
 41
-1.0
1001
ACAD
1000
HATCH
1002
{
1070
    16
1000
ANSI31
1040
1.0
1040
0.0
1002
}
  0
INSERT
  5
45D5862FBB1C57
330
45D5862FB9AFAE
100
AcDbEntity
  8
TABUZAI
100
AcDbBlockReference
  2
00000005
 10
14539.23414062748
 20
-7036.435865609404
 30
0.0
 41
-1.0
 50
270.0
  0
INSERT
  5
45D5862FBB1C58
330
45D5862FB9AFAE
100
AcDbEntity
  8
TABUZAI
100
AcDbBlockReference
  2
00000005
 10
14089.23414062748
 20
-7036.435865609404
 30
0.0
 41
-1.0
 50
270.0
  0
INSERT
  5
45D5862FBB1C59
330
45D5862FB9AFAE
100
AcDbEntity
  8
TABUZAI
100
AcDbBlockReference
  2
00000005
 10
14147.23414062748
 20
-7036.435865609404
 30
0.0
 41
-1.0
 50
270.0
  0
LWPOLYLINE
  5
45D5862FBB1C5A
330
45D5862FB9AFAE
100
AcDbEntity
  8
URABARI
  6
HIDDEN
100
AcDbPolyline
 90
        2
 70
     0
 43
0.0
 10
14545.72372762748
 20
-6984.303434609405
 10
14160.49708862748
 20
-6984.303434609405
1001
ACAD
1000
ASC_BOUNDS
1002
{
1070
    16
1002
}
  0
LWPOLYLINE
  5
45D5862FBB1C5B
330
45D5862FB9AFAE
100
AcDbEntity
  8
SETSUBAN
100
AcDbPolyline
 90
        2
 70
     0
 43
0.0
 10
14188.85989282188
 20
-6977.437158501293
 42
-0.0110237584477973
 10
14352.42899674725
 20
-6973.503434145221
  0
LWPOLYLINE
  5
45D5862FBB1C5C
330
45D5862FB9AFAE
100
AcDbEntity
  8
SETSUBAN
100
AcDbPolyline
 90
        2
 70
     0
 43
0.0
 10
14546.61299462748
 20
-6980.303434609405
 10
14159.60782162748
 20
-6980.303434609405
1001
ACAD
1000
ASC_BOUNDS
1002
{
1070
    16
1002
}
  0
LWPOLYLINE
  5
45D5862FBB1C5D
330
45D5862FB9AFAE
100
AcDbEntity
  8
SETSUBAN
100
AcDbPolyline
 90
        2
 70
     0
 43
0.0
 10
14546.61299462748
 20
-6979.503434609404
 10
14159.60782162748
 20
-6979.503434609404
  0
LWPOLYLINE
  5
45D5862FBB1C5E
330
45D5862FB9AFAE
100
AcDbEntity
  8
SETSUBAN
100
AcDbPolyline
 90
        2
 70
     0
 43
0.0
 10
14352.42898350771
 20
-6973.503434145221
 42
-0.0110237584477973
 10
14515.99808743308
 20
-6977.437158501293
  0
LWPOLYLINE
  5
45D5862FBB1C5F
330
45D5862FB9AFAE
100
AcDbEntity
  8
URABARI
  6
HIDDEN
100
AcDbPolyline
 90
        2
 70
     0
 43
0.0
 10
14591.70442262748
 20
-6929.934323609405
 10
14597.67145762748
 20
-6944.485639609403
  0
LWPOLYLINE
  5
45D5862FBB1C60
330
45D5862FB9AFAE
100
AcDbEntity
  8
SETSUBAN
100
AcDbPolyline
 90
        2
 70
     0
 43
0.0
 10
14592.62965162748
 20
-6929.554915609404
 10
14598.59668762748
 20
-6944.106232609404
  0
LWPOLYLINE
  5
45D5862FBB1C61
330
45D5862FB9AFAE
100
AcDbEntity
  8
SETSUBAN
100
AcDbPolyline
 90
        2
 70
     0
 43
0.0
 10
14593.36983562748
 20
-6929.251389609405
 10
14599.33687062748
 20
-6943.802706609405
  0
LWPOLYLINE
  5
45D5862FBB1C62
330
45D5862FB9AFAE
100
AcDbEntity
  8
SETSUBAN
100
AcDbPolyline
 90
        2
 70
     0
 43
0.0
 10
14590.31657762748
 20
-6927.203434609404
 42
-0.3043142763692328
 10
14593.36983558707
 20
-6929.25138994878
  0
LWPOLYLINE
  5
45D5862FBB1C63
330
45D5862FB9AFAE
100
AcDbEntity
  8
PIECE
100
AcDbPolyline
 90
        2
 70
     0
 43
0.0
 10
14597.83623962748
 20
-6978.003434609404
 10
14590.47683762748
 20
-6933.847196609405
  0
LWPOLYLINE
  5
45D5862FBB1C64
330
45D5862FB9AFAE
100
AcDbEntity
  8
PIECE
100
AcDbPolyline
 90
        2
 70
     0
 43
0.0
 10
14595.53623962748
 20
-6978.193789609405
 10
14588.20813162748
 20
-6934.225315609404
  0
LWPOLYLINE
  5
45D5862FBB1C65
330
45D5862FB9AFAE
100
AcDbEntity
  8
PIECE
100
AcDbPolyline
 90
        2
 70
     0
 43
0.0
 10
14590.64215862748
 20
-6935.003434609403
 10
14597.01570962748
 20
-6945.003434609404
  0
LWPOLYLINE
  5
45D5862FBB1C66
330
45D5862FB9AFAE
100
AcDbEntity
  8
PIECE
100
AcDbPolyline
 90
        2
 70
     0
 43
0.0
 10
14591.61292962748
 20
-6940.805862609403
 10
14595.07616062748
 20
-6946.239616609407
  0
LWPOLYLINE
  5
45D5862FBB1C67
330
45D5862FB9AFAE
100
AcDbEntity
  8
URABARI
  6
HIDDEN
100
AcDbPolyline
 90
        2
 70
     0
 43
0.0
 10
14596.09154577136
 20
-6953.263768425237
 42
-0.2914734195860877
 10
14597.38593105149
 20
-6946.072048888105
  0
LWPOLYLINE
  5
45D5862FBB1C68
330
45D5862FB9AFAE
100
AcDbEntity
  8
URABARI
  6
HIDDEN
100
AcDbPolyline
 90
        2
 70
     0
 43
0.0
 10
14597.67145715457
 20
-6944.485640400029
 42
-0.2914734195860877
 10
14597.38593098983
 20
-6946.072049121453
  0
LWPOLYLINE
  5
45D5862FBB1C69
330
45D5862FB9AFAE
100
AcDbEntity
  8
SETSUBAN
100
AcDbPolyline
 90
        2
 70
     0
 43
0.0
 10
14598.12081062748
 20
-6946.750247609404
 10
14597.97681762748
 20
-6946.906274609403
  0
LWPOLYLINE
  5
45D5862FBB1C6A
330
45D5862FB9AFAE
100
AcDbEntity
  8
SETSUBAN
100
AcDbPolyline
 90
        2
 70
     0
 43
0.0
 10
14598.70871362748
 20
-6947.292805609404
 10
14598.56472062748
 20
-6947.448832609405
  0
LWPOLYLINE
  5
45D5862FBB1C6B
330
45D5862FB9AFAE
100
AcDbEntity
  8
SETSUBAN
100
AcDbPolyline
 90
        2
 70
     0
 43
0.0
 10
14597.08518262748
 20
-6953.558350609404
 10
14597.82536662748
 20
-6953.254824609405
  0
LWPOLYLINE
  5
45D5862FBB1C6C
330
45D5862FB9AFAE
100
AcDbEntity
  8
SETSUBAN
100
AcDbPolyline
 90
        2
 70
     0
 43
0.0
 10
14596.87278262748
 20
-6953.040387609404
 10
14597.08518262748
 20
-6953.558350609404
  0
LWPOLYLINE
  5
45D5862FBB1C6D
330
45D5862FB9AFAE
100
AcDbEntity
  8
SETSUBAN
100
AcDbPolyline
 90
        2
 70
     0
 43
0.0
 10
14597.61296662748
 20
-6952.736861609404
 10
14597.82536662748
 20
-6953.254824609405
  0
LWPOLYLINE
  5
45D5862FBB1C6E
330
45D5862FB9AFAE
100
AcDbEntity
  8
SETSUBAN
100
AcDbPolyline
 90
        2
 70
     0
 43
0.0
 10
14596.87278245608
 20
-6953.04038795232
 42
-0.2914734195860877
 10
14597.97681695973
 20
-6946.906274229473
  0
LWPOLYLINE
  5
45D5862FBB1C6F
330
45D5862FB9AFAE
100
AcDbEntity
  8
SETSUBAN
100
AcDbPolyline
 90
        2
 70
     0
 43
0.0
 10
14597.61296620386
 20
-6952.736861973987
 42
-0.2914734195860877
 10
14598.56472008631
 20
-6947.448832902567
  0
LWPOLYLINE
  5
45D5862FBB1C70
330
45D5862FB9AFAE
100
AcDbEntity
  8
SETSUBAN
100
AcDbPolyline
 90
        2
 70
     0
 43
0.0
 10
14599.33687058707
 20
-6943.802706948779
 42
-0.2914734195860877
 10
14598.70871302465
 20
-6947.292806135918
  0
LWPOLYLINE
  5
45D5862FBB1C71
330
45D5862FB9AFAE
100
AcDbEntity
  8
SETSUBAN
100
AcDbPolyline
 90
        2
 70
     0
 43
0.0
 10
14598.59668683929
 20
-6944.106232927111
 42
-0.2914734195860877
 10
14598.12080989807
 20
-6946.750247462823
  0
LWPOLYLINE
  5
45D5862FBB1C72
330
45D5862FB9AFAE
100
AcDbEntity
  8
PIECE
100
AcDbPolyline
 90
        2
 70
     0
 43
0.0
 10
14617.83623962748
 20
-6993.003434609403
 10
14617.83623962748
 20
-6990.703434609405
  0
LWPOLYLINE
  5
45D5862FBB1C73
330
45D5862FB9AFAE
100
AcDbEntity
  8
PIECE
100
AcDbPolyline
 90
        2
 70
     0
 43
0.0
 10
14600.13623962748
 20
-6993.003434609403
 10
14617.83623962748
 20
-6993.003434609403
  0
LWPOLYLINE
  5
45D5862FBB1C74
330
45D5862FB9AFAE
100
AcDbEntity
  8
PIECE
100
AcDbPolyline
 90
        2
 70
     0
 43
0.0
 10
14600.13623962748
 20
-6990.703434609405
 10
14617.83623962748
 20
-6990.703434609405
  0
LWPOLYLINE
  5
45D5862FBB1C75
330
45D5862FB9AFAE
100
AcDbEntity
  8
PIECE
100
AcDbPolyline
 90
        2
 70
     0
 43
0.0
 10
14597.83623962748
 20
-6988.403434609404
 10
14597.83623962748
 20
-6978.003434609404
  0
LWPOLYLINE
  5
45D5862FBB1C76
330
45D5862FB9AFAE
100
AcDbEntity
  8
PIECE
100
AcDbPolyline
 90
        2
 70
     0
 43
0.0
 10
14595.53623962748
 20
-6988.403434609404
 10
14595.53623962748
 20
-6978.193789609405
  0
LWPOLYLINE
  5
45D5862FBB1C77
330
45D5862FB9AFAE
100
AcDbEntity
  8
PIECE
100
AcDbPolyline
 90
        2
 70
     0
 43
0.0
 10
14600.13623962748
 20
-6990.703434609405
 42
-0.4142135623730951
 10
14597.83623962748
 20
-6988.403434609404
  0
LWPOLYLINE
  5
45D5862FBB1C78
330
45D5862FB9AFAE
100
AcDbEntity
  8
PIECE
100
AcDbPolyline
 90
        2
 70
     0
 43
0.0
 10
14600.13623962748
 20
-6993.003434609403
 42
-0.4142135623730951
 10
14595.53623962748
 20
-6988.403434609404
  0
LWPOLYLINE
  5
45D5862FBB1C79
330
45D5862FB9AFAE
100
AcDbEntity
  8
PIECE
100
AcDbPolyline
 90
        2
 70
     0
 43
0.0
 10
14595.07616062748
 20
-6946.239616609407
 10
14597.01570962748
 20
-6945.003434609404
  0
LWPOLYLINE
  5
45D5862FBB1C7A
330
45D5862FB9AFAE
100
AcDbEntity
  8
URABARI
  6
HIDDEN
100
AcDbPolyline
 90
        2
 70
     0
 43
0.0
 10
14549.34895877563
 20
-6981.993907656368
 42
-0.2914734195860876
 10
14545.72372762748
 20
-6984.303434609405
1001
ACAD
1000
ASC_BOUNDS
1002
{
1070
    16
1002
}
  0
LWPOLYLINE
  5
45D5862FBB1C7B
330
45D5862FB9AFAE
100
AcDbEntity
  8
URABARI
  6
HIDDEN
100
AcDbPolyline
 90
        2
 70
     0
 43
0.0
 10
14549.34895862748
 20
-6981.993907609404
 10
14563.21904962748
 20
-6952.249401609404
  0
LWPOLYLINE
  5
45D5862FBB1C7C
330
45D5862FB9AFAE
100
AcDbEntity
  8
URABARI
  6
HIDDEN
100
AcDbPolyline
 90
        2
 70
     0
 43
0.0
 10
14562.56168600539
 20
-6948.521309231489
 42
-0.3152987888789835
 10
14563.2190493247
 20
-6952.249401873148
  0
LWPOLYLINE
  5
45D5862FBB1C7D
330
45D5862FB9AFAE
100
AcDbEntity
  8
URABARI
  6
HIDDEN
100
AcDbPolyline
 90
        2
 70
     0
 43
0.0
 10
14560.5661594557
 20
-6946.525781781186
 42
-0.2914734195860875
 10
14560.2172806963
 20
-6944.952091394416
  0
LWPOLYLINE
  5
45D5862FBB1C7E
330
45D5862FB9AFAE
100
AcDbEntity
  8
URABARI
  6
HIDDEN
100
AcDbPolyline
 90
        2
 70
     0
 43
0.0
 10
14560.56615862748
 20
-6946.525781609404
 10
14562.56168662748
 20
-6948.521308609404
  0
LWPOLYLINE
  5
45D5862FBB1C7F
330
45D5862FB9AFAE
100
AcDbEntity
  8
URABARI
  6
HIDDEN
100
AcDbPolyline
 90
        2
 70
     0
 43
0.0
 10
14565.66288862748
 20
-6929.990404609404
 10
14560.21728062748
 20
-6944.952090609404
  0
LWPOLYLINE
  5
45D5862FBB1C80
330
45D5862FB9AFAE
100
AcDbEntity
  8
URABARI
  6
HIDDEN
100
AcDbPolyline
 90
        2
 70
     0
 43
0.0
 10
14565.6628886963
 20
-6929.990404394418
 42
-0.3152987888789835
 10
14567.07242762748
 20
-6929.003434609403
  0
LWPOLYLINE
  5
45D5862FBB1C81
330
45D5862FB9AFAE
100
AcDbEntity
  8
URABARI
  6
HIDDEN
100
AcDbPolyline
 90
        2
 70
     0
 43
0.0
 10
14567.07242762748
 20
-6929.003434609403
 10
14590.31657762748
 20
-6929.003434609403
  0
LWPOLYLINE
  5
45D5862FBB1C82
330
45D5862FB9AFAE
100
AcDbEntity
  8
URABARI
  6
HIDDEN
100
AcDbPolyline
 90
        2
 70
     0
 43
0.0
 10
14590.31657762748
 20
-6929.003434609403
 42
-0.3043142763692328
 10
14591.70442215456
 20
-6929.934323400029
  0
LWPOLYLINE
  5
45D5862FBB1C83
330
45D5862FB9AFAE
100
AcDbEntity
  8
SETSUBAN
100
AcDbPolyline
 90
        2
 70
     0
 43
0.0
 10
14590.31657762748
 20
-6928.003434609404
 42
-0.3043142763692328
 10
14592.62965183929
 20
-6929.554915927112
  0
LWPOLYLINE
  5
45D5862FBB1C84
330
45D5862FB9AFAE
100
AcDbEntity
  8
SETSUBAN
100
AcDbPolyline
 90
        2
 70
     0
 43
0.0
 10
14563.97144197889
 20
-6929.37476813643
 42
-0.3152987888789835
 10
14567.07242762748
 20
-6927.203434609404
  0
LWPOLYLINE
  5
45D5862FBB1C85
330
45D5862FB9AFAE
100
AcDbEntity
  8
SETSUBAN
100
AcDbPolyline
 90
        2
 70
     0
 43
0.0
 10
14564.72319607551
 20
-6929.648384251091
 42
-0.3152987888789835
 10
14567.07242762748
 20
-6928.003434609404
  0
LWPOLYLINE
  5
45D5862FBB1C86
330
45D5862FB9AFAE
100
AcDbEntity
  8
SETSUBAN
100
AcDbPolyline
 90
        2
 70
     0
 43
0.0
 10
14567.07242762748
 20
-6927.203434609404
 10
14590.31657762748
 20
-6927.203434609404
  0
LWPOLYLINE
  5
45D5862FBB1C87
330
45D5862FB9AFAE
100
AcDbEntity
  8
SETSUBAN
100
AcDbPolyline
 90
        2
 70
     0
 43
0.0
 10
14567.07242762748
 20
-6928.003434609404
 10
14590.31657762748
 20
-6928.003434609404
  0
LWPOLYLINE
  5
45D5862FBB1C88
330
45D5862FB9AFAE
100
AcDbEntity
  8
SETSUBAN
100
AcDbPolyline
 90
        2
 70
     0
 43
0.0
 10
14559.85905262748
 20
-6947.232888609403
 10
14561.85457962748
 20
-6949.228415609404
  0
LWPOLYLINE
  5
45D5862FBB1C89
330
45D5862FB9AFAE
100
AcDbEntity
  8
SETSUBAN
100
AcDbPolyline
 90
        2
 70
     0
 43
0.0
 10
14564.72319662748
 20
-6929.648384609405
 10
14559.27758762748
 20
-6944.610070609404
  0
LWPOLYLINE
  5
45D5862FBB1C8A
330
45D5862FB9AFAE
100
AcDbEntity
  8
SETSUBAN
100
AcDbPolyline
 90
        2
 70
     0
 43
0.0
 10
14563.97144262748
 20
-6929.374767609404
 10
14558.52583362748
 20
-6944.336454609403
  0
LWPOLYLINE
  5
45D5862FBB1C8B
330
45D5862FB9AFAE
100
AcDbEntity
  8
SETSUBAN
100
AcDbPolyline
 90
        2
 70
     0
 43
0.0
 10
14559.29336724956
 20
-6947.798573987319
 42
-0.2914734195860875
 10
14558.52583397889
 20
-6944.336455136429
  0
LWPOLYLINE
  5
45D5862FBB1C8C
330
45D5862FB9AFAE
100
AcDbEntity
  8
SETSUBAN
100
AcDbPolyline
 90
        2
 70
     0
 43
0.0
 10
14559.85905267451
 20
-6947.232888562372
 42
-0.2914734195860875
 10
14559.27758807551
 20
-6944.610071251091
  0
LWPOLYLINE
  5
45D5862FBB1C8D
330
45D5862FB9AFAE
100
AcDbEntity
  8
SETSUBAN
100
AcDbPolyline
 90
        2
 70
     0
 43
0.0
 10
14559.29336662748
 20
-6947.798573609404
 10
14561.28889462748
 20
-6949.794100609404
  0
LWPOLYLINE
  5
45D5862FBB1C8E
330
45D5862FB9AFAE
100
AcDbEntity
  8
SETSUBAN
100
AcDbPolyline
 90
        2
 70
     0
 43
0.0
 10
14561.28889379926
 20
-6949.794101437624
 42
-0.3152987888789835
 10
14561.58769530803
 20
-6951.488689002015
  0
LWPOLYLINE
  5
45D5862FBB1C8F
330
45D5862FB9AFAE
100
AcDbEntity
  8
SETSUBAN
100
AcDbPolyline
 90
        2
 70
     0
 43
0.0
 10
14561.85457922421
 20
-6949.228416012674
 42
-0.3152987888789835
 10
14562.31274153767
 20
-6951.826783611406
  0
LWPOLYLINE
  5
45D5862FBB1C90
330
45D5862FB9AFAE
100
AcDbEntity
  8
SETSUBAN
100
AcDbPolyline
 90
        2
 70
     0
 43
0.0
 10
14549.33191762748
 20
-6977.771289609404
 10
14561.58769562748
 20
-6951.488688609403
  0
LWPOLYLINE
  5
45D5862FBB1C91
330
45D5862FB9AFAE
100
AcDbEntity
  8
SETSUBAN
100
AcDbPolyline
 90
        2
 70
     0
 43
0.0
 10
14550.05696362748
 20
-6978.109383609404
 10
14562.31274162748
 20
-6951.826783609404
  0
LWPOLYLINE
  5
45D5862FBB1C92
330
45D5862FB9AFAE
100
AcDbEntity
  8
PIECE
100
AcDbPolyline
 90
        2
 70
     0
 43
0.0
 10
14585.93942662748
 20
-6932.303434609403
 10
14571.76117662748
 20
-6932.303434609403
  0
LWPOLYLINE
  5
45D5862FBB1C93
330
45D5862FB9AFAE
100
AcDbEntity
  8
PIECE
100
AcDbPolyline
 90
        2
 70
     0
 43
0.0
 10
14562.13623962748
 20
-6988.403434609404
 10
14562.13623962748
 20
-6978.194506609404
  0
LWPOLYLINE
  5
45D5862FBB1C94
330
45D5862FB9AFAE
100
AcDbEntity
  8
PIECE
100
AcDbPolyline
 90
        2
 70
     0
 43
0.0
 10
14559.83623962748
 20
-6988.403434609404
 10
14559.83623962748
 20
-6978.003434609404
  0
LWPOLYLINE
  5
45D5862FBB1C95
330
45D5862FB9AFAE
100
AcDbEntity
  8
PIECE
100
AcDbPolyline
 90
        2
 70
     0
 43
0.0
 10
14557.53623962748
 20
-6990.703434609405
 10
14539.83623962748
 20
-6990.703434609405
  0
LWPOLYLINE
  5
45D5862FBB1C96
330
45D5862FB9AFAE
100
AcDbEntity
  8
PIECE
100
AcDbPolyline
 90
        2
 70
     0
 43
0.0
 10
14557.53623962748
 20
-6993.003434609403
 10
14539.83623962748
 20
-6993.003434609403
  0
LWPOLYLINE
  5
45D5862FBB1C97
330
45D5862FB9AFAE
100
AcDbEntity
  8
PIECE
100
AcDbPolyline
 90
        2
 70
     0
 43
0.0
 10
14539.83623962748
 20
-6993.003434609403
 10
14539.83623962748
 20
-6990.703434609405
  0
LWPOLYLINE
  5
45D5862FBB1C98
330
45D5862FB9AFAE
100
AcDbEntity
  8
PIECE
100
AcDbPolyline
 90
        2
 70
     0
 43
0.0
 10
14559.83623962748
 20
-6988.403434609404
 42
-0.4142135623730951
 10
14557.53623962748
 20
-6990.703434609405
  0
LWPOLYLINE
  5
45D5862FBB1C99
330
45D5862FB9AFAE
100
AcDbEntity
  8
PIECE
100
AcDbPolyline
 90
        2
 70
     0
 43
0.0
 10
14562.13623962748
 20
-6988.403434609404
 42
-0.4142135623730951
 10
14557.53623962748
 20
-6993.003434609403
  0
LWPOLYLINE
  5
45D5862FBB1C9A
330
45D5862FB9AFAE
100
AcDbEntity
  8
PIECE
100
AcDbPolyline
 90
        2
 70
     0
 43
0.0
 10
14585.93942662748
 20
-6930.003434609405
 10
14571.76117662748
 20
-6930.003434609405
  0
LWPOLYLINE
  5
45D5862FBB1C9B
330
45D5862FB9AFAE
100
AcDbEntity
  8
PIECE
100
AcDbPolyline
 90
        2
 70
     0
 43
0.0
 10
14567.22423462748
 20
-6933.844384609404
 10
14559.83623962748
 20
-6978.003434609404
  0
LWPOLYLINE
  5
45D5862FBB1C9C
330
45D5862FB9AFAE
100
AcDbEntity
  8
PIECE
100
AcDbPolyline
 90
        2
 70
     0
 43
0.0
 10
14569.49270562748
 20
-6934.223909609404
 10
14562.13623962748
 20
-6978.194506609404
  0
LWPOLYLINE
  5
45D5862FBB1C9D
330
45D5862FB9AFAE
100
AcDbEntity
  8
PIECE
100
AcDbPolyline
 90
        2
 70
     0
 43
0.0
 10
14569.4927055671
 20
-6934.223909843161
 42
-0.3664534687303901
 10
14571.76117662748
 20
-6932.303434609403
  0
LWPOLYLINE
  5
45D5862FBB1C9E
330
45D5862FB9AFAE
100
AcDbEntity
  8
PIECE
100
AcDbPolyline
 90
        2
 70
     0
 43
0.0
 10
14585.93942662748
 20
-6932.303434609403
 42
-0.3666291875374781
 10
14588.20813241609
 20
-6934.225315521368
  0
LWPOLYLINE
  5
45D5862FBB1C9F
330
45D5862FB9AFAE
100
AcDbEntity
  8
PIECE
100
AcDbPolyline
 90
        2
 70
     0
 43
0.0
 10
14585.93942662748
 20
-6930.003434609405
 42
-0.3666291875374781
 10
14590.4768382047
 20
-6933.847196433333
  0
LWPOLYLINE
  5
45D5862FBB1CA0
330
45D5862FB9AFAE
100
AcDbEntity
  8
PIECE
100
AcDbPolyline
 90
        2
 70
     0
 43
0.0
 10
14567.22423450671
 20
-6933.844385076913
 42
-0.3664534687303901
 10
14571.76117662748
 20
-6930.003434609405
  0
LWPOLYLINE
  5
45D5862FBB1CA1
330
45D5862FB9AFAE
100
AcDbEntity
  8
PIECE
100
AcDbPolyline
 90
        2
 70
     0
 43
0.0
 10
14567.03032062748
 20
-6935.003434609403
 10
14560.65676862748
 20
-6945.003434609404
  0
LWPOLYLINE
  5
45D5862FBB1CA2
330
45D5862FB9AFAE
100
AcDbEntity
  8
PIECE
100
AcDbPolyline
 90
        2
 70
     0
 43
0.0
 10
14566.05954962748
 20
-6940.805862609403
 10
14562.59631862748
 20
-6946.239616609407
  0
LWPOLYLINE
  5
45D5862FBB1CA3
330
45D5862FB9AFAE
100
AcDbEntity
  8
PIECE
100
AcDbPolyline
 90
        2
 70
     0
 43
0.0
 10
14562.59631862748
 20
-6946.239616609407
 10
14560.65676862748
 20
-6945.003434609404
  0
LWPOLYLINE
  5
45D5862FBB1CA4
330
45D5862FB9AFAE
100
AcDbEntity
  8
PIECE
100
AcDbPolyline
 90
        2
 70
     0
 43
0.0
 10
14546.88616262748
 20
-6993.003434609403
 10
14546.88616262748
 20
-6990.703434609405
  0
LWPOLYLINE
  5
45D5862FBB1CA5
330
45D5862FB9AFAE
100
AcDbEntity
  8
PIECE
100
AcDbPolyline
 90
        2
 70
     0
 43
0.0
 10
14552.83623962748
 20
-6993.003434609403
 10
14552.83623962748
 20
-6990.703434609405
  0
LWPOLYLINE
  5
45D5862FBB1CA6
330
45D5862FB9AFAE
100
AcDbEntity
  8
SETSUBAN
100
AcDbPolyline
 90
        2
 70
     0
 43
0.0
 10
14517.42898962748
 20
-6979.503434609404
 10
14517.42898962748
 20
-6978.935566609404
  0
LWPOLYLINE
  5
45D5862FBB1CA7
330
45D5862FB9AFAE
100
AcDbEntity
  8
SETSUBAN
100
AcDbPolyline
 90
        2
 70
     0
 43
0.0
 10
14515.99810210189
 20
-6977.437159633351
 42
-0.4007772685159518
 10
14517.42898962748
 20
-6978.935566609404
  0
LWPOLYLINE
  5
45D5862FBB1CA8
330
45D5862FB9AFAE
100
AcDbEntity
  8
SETSUBAN
100
AcDbPolyline
 90
        2
 70
     0
 43
0.0
 10
14550.05696421822
 20
-6978.10938400402
 42
-0.2914734195860876
 10
14546.61299462748
 20
-6980.303434609405
  0
LWPOLYLINE
  5
45D5862FBB1CA9
330
45D5862FB9AFAE
100
AcDbEntity
  8
SETSUBAN
100
AcDbPolyline
 90
        2
 70
     0
 43
0.0
 10
14549.33191798859
 20
-6977.771289394626
 42
-0.2914734195860876
 10
14546.61299462748
 20
-6979.503434609404
  0
LWPOLYLINE
  5
45D5862FBB1CAC
330
45D5862FB9AFAE
100
AcDbEntity
  8
SETSUBAN
100
AcDbPolyline
 90
        2
 70
     0
 43
0.0
 10
14096.61299462748
 20
-6979.503434609404
 10
14070.89518426078
 20
-6979.503434609404
  0
LWPOLYLINE
  5
45D5862FBB1CAD
330
45D5862FB9AFAE
100
AcDbEntity
  8
SETSUBAN
100
AcDbPolyline
 90
        2
 70
     0
 43
0.0
 10
14096.61299462748
 20
-6980.303434609405
 10
14070.89518426078
 20
-6980.303434609405
1001
ACAD
1000
ASC_BOUNDS
1002
{
1070
    16
1002
}
  0
LWPOLYLINE
  5
45D5862FBB1CAE
330
45D5862FB9AFAE
100
AcDbEntity
  8
SETSUBAN
100
AcDbPolyline
 90
        2
 70
     0
 43
0.0
 10
14187.42898962748
 20
-6979.503434609404
 10
14187.42898962748
 20
-6978.935566609404
  0
LWPOLYLINE
  5
45D5862FBB1CAF
330
45D5862FB9AFAE
100
AcDbEntity
  8
SETSUBAN
100
AcDbPolyline
 90
        2
 70
     0
 43
0.0
 10
14187.42898962748
 20
-6978.935566609404
 42
-0.4007772685159518
 10
14188.85987715307
 20
-6977.437159633351
  0
LWPOLYLINE
  5
45D5862FBB1CB0
330
45D5862FB9AFAE
100
AcDbEntity
  8
URABARI
  6
HIDDEN
100
AcDbPolyline
 90
        2
 70
     0
 43
0.0
 10
14100.49133677562
 20
-6981.993907656368
 42
-0.2914734195860876
 10
14096.86610562748
 20
-6984.303434609405
1001
ACAD
1000
ASC_BOUNDS
1002
{
1070
    16
1002
}
  0
LWPOLYLINE
  5
45D5862FBB1CB1
330
45D5862FB9AFAE
100
AcDbEntity
  8
URABARI
  6
HIDDEN
100
AcDbPolyline
 90
        2
 70
     0
 43
0.0
 10
14100.49133662748
 20
-6981.993907609404
 10
14114.06200662748
 20
-6952.891511609404
1001
ACAD
1000
ASC_BOUNDS
1002
{
1070
    16
1002
}
  0
LWPOLYLINE
  5
45D5862FBB1CB2
330
45D5862FB9AFAE
100
AcDbEntity
  8
PIECE
100
AcDbPolyline
 90
        2
 70
     0
 43
0.0
 10
14107.53623962748
 20
-6993.003434609403
 10
14089.83623962748
 20
-6993.003434609403
  0
LWPOLYLINE
  5
45D5862FBB1CB3
330
45D5862FB9AFAE
100
AcDbEntity
  8
PIECE
100
AcDbPolyline
 90
        2
 70
     0
 43
0.0
 10
14107.53623962748
 20
-6990.703434609405
 10
14089.83623962748
 20
-6990.703434609405
  0
LWPOLYLINE
  5
45D5862FBB1CB4
330
45D5862FB9AFAE
100
AcDbEntity
  8
SETSUBAN
100
AcDbPolyline
 90
        2
 70
     0
 43
0.0
 10
14100.05696362748
 20
-6978.109383609404
 10
14112.31274162748
 20
-6951.826783609404
1001
ACAD
1000
ASC_BOUNDS
1002
{
1070
    16
1002
}
  0
LWPOLYLINE
  5
45D5862FBB1CB5
330
45D5862FB9AFAE
100
AcDbEntity
  8
SETSUBAN
100
AcDbPolyline
 90
        2
 70
     0
 43
0.0
 10
14099.33191762748
 20
-6977.771289609404
 10
14111.58769562748
 20
-6951.488688609403
  0
LWPOLYLINE
  5
45D5862FBB1CB6
330
45D5862FB9AFAE
100
AcDbEntity
  8
URABARI
  6
HIDDEN
100
AcDbPolyline
 90
        2
 70
     0
 43
0.0
 10
14113.20544278658
 20
-6948.033694450302
 42
-0.3152987888789835
 10
14114.06200711174
 20
-6952.891512134889
  0
LWPOLYLINE
  5
45D5862FBB1CB7
330
45D5862FB9AFAE
100
AcDbEntity
  8
URABARI
  6
HIDDEN
100
AcDbPolyline
 90
        2
 70
     0
 43
0.0
 10
14111.50114162748
 20
-6946.329393609405
 10
14113.20544262748
 20
-6948.033694609404
  0
LWPOLYLINE
  5
45D5862FBB1CB8
330
45D5862FB9AFAE
100
AcDbEntity
  8
URABARI
  6
HIDDEN2
100
AcDbPolyline
 90
        2
 70
     0
 43
0.0
 10
14111.50114223689
 20
-6946.329393999997
 42
-0.2914734195860875
 10
14111.38484931709
 20
-6945.80483053774
  0
LWPOLYLINE
  5
45D5862FBB1CB9
330
45D5862FB9AFAE
100
AcDbEntity
  8
URABARI
  6
HIDDEN
100
AcDbPolyline
 90
        2
 70
     0
 43
0.0
 10
14116.41288862748
 20
-6931.990404609404
 10
14111.38484962748
 20
-6945.804829609404
  0
LWPOLYLINE
  5
45D5862FBB1CBA
330
45D5862FB9AFAE
100
AcDbEntity
  8
URABARI
  6
HIDDEN
100
AcDbPolyline
 90
        2
 70
     0
 43
0.0
 10
14116.4128886963
 20
-6931.990404394415
 42
-0.3152987888789835
 10
14117.82242762748
 20
-6931.003434609404
  0
LWPOLYLINE
  5
45D5862FBB1CBB
330
45D5862FB9AFAE
100
AcDbEntity
  8
URABARI
  6
HIDDEN
100
AcDbPolyline
 90
        2
 70
     0
 43
0.0
 10
14117.82242762748
 20
-6931.003434609404
 10
14139.76122462748
 20
-6931.003434609404
  0
LWPOLYLINE
  5
45D5862FBB1CBC
330
45D5862FB9AFAE
100
AcDbEntity
  8
URABARI
  6
HIDDEN
100
AcDbPolyline
 90
        2
 70
     0
 43
0.0
 10
14139.76122462748
 20
-6931.003434609404
 42
-0.3152987888789835
 10
14141.17076355866
 20
-6931.990404394415
  0
LWPOLYLINE
  5
45D5862FBB1CBD
330
45D5862FB9AFAE
100
AcDbEntity
  8
URABARI
  6
HIDDEN
100
AcDbPolyline
 90
        2
 70
     0
 43
0.0
 10
14141.17076262748
 20
-6931.990404609404
 10
14146.18994562748
 20
-6945.780495609404
  0
LWPOLYLINE
  5
45D5862FBB1CBE
330
45D5862FB9AFAE
100
AcDbEntity
  8
URABARI
  6
HIDDEN2
100
AcDbPolyline
 90
        2
 70
     0
 43
0.0
 10
14146.18994593787
 20
-6945.780495537741
 42
-0.3639702342662023
 10
14145.97009962748
 20
-6946.384518311297
  0
LWPOLYLINE
  5
45D5862FBB1CBF
330
45D5862FB9AFAE
100
AcDbEntity
  8
URABARI
  6
HIDDEN
100
AcDbPolyline
 90
        2
 70
     0
 43
0.0
 10
14145.97009962748
 20
-6946.384518609405
 10
14144.09543062748
 20
-6947.466859609405
  0
LWPOLYLINE
  5
45D5862FBB1CC0
330
45D5862FB9AFAE
100
AcDbEntity
  8
URABARI
  6
HIDDEN
100
AcDbPolyline
 90
        2
 70
     0
 43
0.0
 10
14142.75461493026
 20
-6951.719383873149
 42
-0.3888787318529896
 10
14144.09543062748
 20
-6947.466859776915
  0
LWPOLYLINE
  5
45D5862FBB1CC1
330
45D5862FB9AFAE
100
AcDbEntity
  8
URABARI
100
AcDbPolyline
 90
        2
 70
     0
 43
0.0
 10
14160.49708862748
 20
-6984.303434609405
 42
-0.2914734195860875
 10
14156.87185747933
 20
-6981.993907656368
1001
ACAD
1000
ASC_BOUNDS
1002
{
1070
    16
1002
}
  0
LWPOLYLINE
  5
45D5862FBB1CC2
330
45D5862FB9AFAE
100
AcDbEntity
  8
URABARI
  6
HIDDEN
100
AcDbPolyline
 90
        2
 70
     0
 43
0.0
 10
14156.87185762748
 20
-6981.993907609404
 10
14142.75461462748
 20
-6951.719383609404
  0
LWPOLYLINE
  5
45D5862FBB1CC3
330
45D5862FB9AFAE
100
AcDbEntity
  8
SETSUBAN
100
AcDbPolyline
 90
        2
 70
     0
 43
0.0
 10
14110.22835003075
 20
-6947.602186206133
 42
-0.2914734195860875
 10
14109.69340259967
 20
-6945.189194279755
  0
LWPOLYLINE
  5
45D5862FBB1CC4
330
45D5862FB9AFAE
100
AcDbEntity
  8
SETSUBAN
100
AcDbPolyline
 90
        2
 70
     0
 43
0.0
 10
14110.7940354557
 20
-6947.036500781182
 42
-0.2914734195860875
 10
14110.4451566963
 20
-6945.462810394416
  0
LWPOLYLINE
  5
45D5862FBB1CC5
330
45D5862FB9AFAE
100
AcDbEntity
  8
SETSUBAN
100
AcDbPolyline
 90
        2
 70
     0
 43
0.0
 10
14146.87009962748
 20
-6947.943364609404
 10
14144.99543062748
 20
-6949.025704609404
  0
LWPOLYLINE
  5
45D5862FBB1CC6
330
45D5862FB9AFAE
100
AcDbEntity
  8
SETSUBAN
100
AcDbPolyline
 90
        2
 70
     0
 43
0.0
 10
14146.47009962748
 20
-6947.250543609404
 10
14144.59543062748
 20
-6948.332884609405
  0
LWPOLYLINE
  5
45D5862FBB1CC7
330
45D5862FB9AFAE
100
AcDbEntity
  8
SETSUBAN
100
AcDbPolyline
 90
        2
 70
     0
 43
0.0
 10
14156.16385162748
 20
-6978.109383609404
 10
14143.66092262748
 20
-6951.296765609405
  0
LWPOLYLINE
  5
45D5862FBB1CC8
330
45D5862FB9AFAE
100
AcDbEntity
  8
SETSUBAN
100
AcDbPolyline
 90
        2
 70
     0
 43
0.0
 10
14156.88889862748
 20
-6977.771289609404
 10
14144.38596862748
 20
-6950.958670609404
  0
LWPOLYLINE
  5
45D5862FBB1CC9
330
45D5862FB9AFAE
100
AcDbEntity
  8
SETSUBAN
100
AcDbPolyline
 90
        2
 70
     0
 43
0.0
 10
14144.38596894692
 20
-6950.958671002016
 42
-0.3888787318529896
 10
14144.99543062748
 20
-6949.025705503728
  0
LWPOLYLINE
  5
45D5862FBB1CCA
330
45D5862FB9AFAE
100
AcDbEntity
  8
SETSUBAN
100
AcDbPolyline
 90
        2
 70
     0
 43
0.0
 10
14143.6609227173
 20
-6951.296765611409
 42
-0.3888787318529896
 10
14144.59543062748
 20
-6948.3328851807
  0
LWPOLYLINE
  5
45D5862FBB1CCB
330
45D5862FB9AFAE
100
AcDbEntity
  8
PIECE
100
AcDbPolyline
 90
        2
 70
     0
 43
0.0
 10
14119.49270556709
 20
-6934.223909843161
 42
-0.3664534687303901
 10
14121.76117662748
 20
-6932.303434609403
  0
LWPOLYLINE
  5
45D5862FBB1CCC
330
45D5862FB9AFAE
100
AcDbEntity
  8
PIECE
100
AcDbPolyline
 90
        2
 70
     0
 43
0.0
 10
14117.22423450671
 20
-6933.844385076913
 42
-0.3664534687303901
 10
14121.76117662748
 20
-6930.003434609405
  0
LWPOLYLINE
  5
45D5862FBB1CCD
330
45D5862FB9AFAE
100
AcDbEntity
  8
PIECE
100
AcDbPolyline
 90
        2
 70
     0
 43
0.0
 10
14112.59631862748
 20
-6946.239616609407
 10
14110.65676862748
 20
-6945.003434609404
  0
LWPOLYLINE
  5
45D5862FBB1CCE
330
45D5862FB9AFAE
100
AcDbEntity
  8
PIECE
100
AcDbPolyline
 90
        2
 70
     0
 43
0.0
 10
14116.05954962748
 20
-6940.805862609403
 10
14112.59631862748
 20
-6946.239616609407
  0
LWPOLYLINE
  5
45D5862FBB1CCF
330
45D5862FB9AFAE
100
AcDbEntity
  8
PIECE
100
AcDbPolyline
 90
        2
 70
     0
 43
0.0
 10
14117.03032062748
 20
-6935.003434609403
 10
14110.65676862748
 20
-6945.003434609404
  0
LWPOLYLINE
  5
45D5862FBB1CD0
330
45D5862FB9AFAE
100
AcDbEntity
  8
SETSUBAN
100
AcDbPolyline
 90
        2
 70
     0
 43
0.0
 10
14147.88139265529
 20
-6945.164859279755
 42
-0.3639702342662023
 10
14146.87009962748
 20
-6947.943364038107
  0
LWPOLYLINE
  5
45D5862FBB1CD1
330
45D5862FB9AFAE
100
AcDbEntity
  8
SETSUBAN
100
AcDbPolyline
 90
        2
 70
     0
 43
0.0
 10
14147.12963855866
 20
-6945.438475394415
 42
-0.3639702342662023
 10
14146.47009962748
 20
-6947.250543715082
  0
LWPOLYLINE
  5
45D5862FBB1CD2
330
45D5862FB9AFAE
100
AcDbEntity
  8
SETSUBAN
100
AcDbPolyline
 90
        2
 70
     0
 43
0.0
 10
14139.76122462748
 20
-6929.203434609404
 42
-0.3152987888789835
 10
14142.86221027607
 20
-6931.374768136429
  0
LWPOLYLINE
  5
45D5862FBB1CD3
330
45D5862FB9AFAE
100
AcDbEntity
  8
SETSUBAN
100
AcDbPolyline
 90
        2
 70
     0
 43
0.0
 10
14142.86220962748
 20
-6931.374767609402
 10
14147.88139262748
 20
-6945.164859609405
  0
LWPOLYLINE
  5
45D5862FBB1CD4
330
45D5862FB9AFAE
100
AcDbEntity
  8
SETSUBAN
100
AcDbPolyline
 90
        2
 70
     0
 43
0.0
 10
14142.11045562748
 20
-6931.648384609404
 10
14147.12963862748
 20
-6945.438475609404
  0
LWPOLYLINE
  5
45D5862FBB1CD5
330
45D5862FB9AFAE
100
AcDbEntity
  8
SETSUBAN
100
AcDbPolyline
 90
        2
 70
     0
 43
0.0
 10
14139.76122462748
 20
-6930.003434609405
 42
-0.3152987888789835
 10
14142.11045617944
 20
-6931.64838425109
  0
LWPOLYLINE
  5
45D5862FBB1CD6
330
45D5862FB9AFAE
100
AcDbEntity
  8
SETSUBAN
100
AcDbPolyline
 90
        2
 70
     0
 43
0.0
 10
14117.82242762748
 20
-6930.003434609405
 10
14139.76122462748
 20
-6930.003434609405
  0
LWPOLYLINE
  5
45D5862FBB1CD7
330
45D5862FB9AFAE
100
AcDbEntity
  8
SETSUBAN
100
AcDbPolyline
 90
        2
 70
     0
 43
0.0
 10
14117.82242762748
 20
-6929.203434609404
 10
14139.76122462748
 20
-6929.203434609404
  0
LWPOLYLINE
  5
45D5862FBB1CD8
330
45D5862FB9AFAE
100
AcDbEntity
  8
PIECE
100
AcDbPolyline
 90
        2
 70
     0
 43
0.0
 10
14135.93942662748
 20
-6930.003434609405
 10
14121.76117662748
 20
-6930.003434609405
  0
LWPOLYLINE
  5
45D5862FBB1CD9
330
45D5862FB9AFAE
100
AcDbEntity
  8
PIECE
100
AcDbPolyline
 90
        2
 70
     0
 43
0.0
 10
14135.93942662748
 20
-6932.303434609403
 10
14121.76117662748
 20
-6932.303434609403
  0
LWPOLYLINE
  5
45D5862FBB1CDA
330
45D5862FB9AFAE
100
AcDbEntity
  8
SETSUBAN
100
AcDbPolyline
 90
        2
 70
     0
 43
0.0
 10
14114.72144197889
 20
-6931.374768136429
 42
-0.3152987888789835
 10
14117.82242762748
 20
-6929.203434609404
  0
LWPOLYLINE
  5
45D5862FBB1CDB
330
45D5862FB9AFAE
100
AcDbEntity
  8
SETSUBAN
100
AcDbPolyline
 90
        2
 70
     0
 43
0.0
 10
14115.47319662748
 20
-6931.648384609404
 10
14110.44515662748
 20
-6945.462809609404
  0
LWPOLYLINE
  5
45D5862FBB1CDC
330
45D5862FB9AFAE
100
AcDbEntity
  8
SETSUBAN
100
AcDbPolyline
 90
        2
 70
     0
 43
0.0
 10
14114.72144262748
 20
-6931.374767609402
 10
14109.69340262748
 20
-6945.189193609405
  0
LWPOLYLINE
  5
45D5862FBB1CDD
330
45D5862FB9AFAE
100
AcDbEntity
  8
SETSUBAN
100
AcDbPolyline
 90
        2
 70
     0
 43
0.0
 10
14115.47319607551
 20
-6931.64838425109
 42
-0.3152987888789835
 10
14117.82242762748
 20
-6930.003434609405
  0
LWPOLYLINE
  5
45D5862FBB1CDE
330
45D5862FB9AFAE
100
AcDbEntity
  8
PIECE
100
AcDbPolyline
 90
        2
 70
     0
 43
0.0
 10
14135.93942662748
 20
-6930.003434609405
 42
-0.3666291875374781
 10
14140.4768382047
 20
-6933.847196433333
  0
LWPOLYLINE
  5
45D5862FBB1CDF
330
45D5862FB9AFAE
100
AcDbEntity
  8
PIECE
100
AcDbPolyline
 90
        2
 70
     0
 43
0.0
 10
14135.93942662748
 20
-6932.303434609403
 42
-0.3666291875374781
 10
14138.20813241609
 20
-6934.225315521368
  0
LWPOLYLINE
  5
45D5862FBB1CE0
330
45D5862FB9AFAE
100
AcDbEntity
  8
SETSUBAN
100
AcDbPolyline
 90
        2
 70
     0
 43
0.0
 10
14112.43065262748
 20
-6952.130798609404
 10
14111.59834962748
 20
-6953.915679609405
  0
LWPOLYLINE
  5
45D5862FBB1CE1
330
45D5862FB9AFAE
100
AcDbEntity
  8
SETSUBAN
100
AcDbPolyline
 90
        2
 70
     0
 43
0.0
 10
14113.15569962748
 20
-6952.468893609405
 10
14112.32339562748
 20
-6954.253774609404
  0
LWPOLYLINE
  5
45D5862FBB1CE2
330
45D5862FB9AFAE
100
AcDbEntity
  8
SETSUBAN
100
AcDbPolyline
 90
        2
 70
     0
 43
0.0
 10
14110.22834962748
 20
-6947.602185609404
 10
14111.93265062748
 20
-6949.306486609403
  0
LWPOLYLINE
  5
45D5862FBB1CE3
330
45D5862FB9AFAE
100
AcDbEntity
  8
SETSUBAN
100
AcDbPolyline
 90
        2
 70
     0
 43
0.0
 10
14110.79403562748
 20
-6947.036500609404
 10
14112.49833562748
 20
-6948.740800609404
  0
LWPOLYLINE
  5
45D5862FBB1CE4
330
45D5862FB9AFAE
100
AcDbEntity
  8
SETSUBAN
100
AcDbPolyline
 90
        2
 70
     0
 43
0.0
 10
14111.59834962748
 20
-6953.915679609405
 10
14112.32339562748
 20
-6954.253774609404
  0
LWPOLYLINE
  5
45D5862FBB1CE5
330
45D5862FB9AFAE
100
AcDbEntity
  8
SETSUBAN
100
AcDbPolyline
 90
        2
 70
     0
 43
0.0
 10
14111.93265058044
 20
-6949.306486656438
 42
-0.3152987888789835
 10
14112.43065309507
 20
-6952.130799263755
  0
LWPOLYLINE
  5
45D5862FBB1CE6
330
45D5862FB9AFAE
100
AcDbEntity
  8
SETSUBAN
100
AcDbPolyline
 90
        2
 70
     0
 43
0.0
 10
14112.4983360054
 20
-6948.740801231489
 42
-0.3152987888789835
 10
14113.1556993247
 20
-6952.468893873149
  0
LWPOLYLINE
  5
45D5862FBB1CE7
330
45D5862FB9AFAE
100
AcDbEntity
  8
PIECE
100
AcDbPolyline
 90
        2
 70
     0
 43
0.0
 10
14145.07616062748
 20
-6946.239616609407
 10
14147.01570962748
 20
-6945.003434609404
  0
LWPOLYLINE
  5
45D5862FBB1CE8
330
45D5862FB9AFAE
100
AcDbEntity
  8
PIECE
100
AcDbPolyline
 90
        2
 70
     0
 43
0.0
 10
14141.61292962748
 20
-6940.805862609403
 10
14145.07616062748
 20
-6946.239616609407
  0
LWPOLYLINE
  5
45D5862FBB1CE9
330
45D5862FB9AFAE
100
AcDbEntity
  8
PIECE
100
AcDbPolyline
 90
        2
 70
     0
 43
0.0
 10
14140.64215862748
 20
-6935.003434609403
 10
14147.01570962748
 20
-6945.003434609404
  0
LWPOLYLINE
  5
45D5862FBB1CEA
330
45D5862FB9AFAE
100
AcDbEntity
  8
PIECE
100
AcDbPolyline
 90
        2
 70
     0
 43
0.0
 10
14119.49270562748
 20
-6934.223909609404
 10
14112.13623962748
 20
-6978.194506609404
  0
LWPOLYLINE
  5
45D5862FBB1CEB
330
45D5862FB9AFAE
100
AcDbEntity
  8
PIECE
100
AcDbPolyline
 90
        2
 70
     0
 43
0.0
 10
14117.22423462748
 20
-6933.844384609404
 10
14109.83623962748
 20
-6978.003434609404
  0
LWPOLYLINE
  5
45D5862FBB1CEC
330
45D5862FB9AFAE
100
AcDbEntity
  8
PIECE
100
AcDbPolyline
 90
        2
 70
     0
 43
0.0
 10
14112.13623962748
 20
-6988.403434609404
 10
14112.13623962748
 20
-6978.194506609404
  0
LWPOLYLINE
  5
45D5862FBB1CED
330
45D5862FB9AFAE
100
AcDbEntity
  8
PIECE
100
AcDbPolyline
 90
        2
 70
     0
 43
0.0
 10
14109.83623962748
 20
-6988.403434609404
 10
14109.83623962748
 20
-6978.003434609404
  0
LWPOLYLINE
  5
45D5862FBB1CEE
330
45D5862FB9AFAE
100
AcDbEntity
  8
PIECE
100
AcDbPolyline
 90
        2
 70
     0
 43
0.0
 10
14102.83623962748
 20
-6993.003434609403
 10
14102.83623962748
 20
-6990.703434609405
  0
LWPOLYLINE
  5
45D5862FBB1CEF
330
45D5862FB9AFAE
100
AcDbEntity
  8
PIECE
100
AcDbPolyline
 90
        2
 70
     0
 43
0.0
 10
14112.13623962748
 20
-6988.403434609404
 42
-0.4142135623730951
 10
14107.53623962748
 20
-6993.003434609403
  0
LWPOLYLINE
  5
45D5862FBB1CF0
330
45D5862FB9AFAE
100
AcDbEntity
  8
PIECE
100
AcDbPolyline
 90
        2
 70
     0
 43
0.0
 10
14109.83623962748
 20
-6988.403434609404
 42
-0.4142135623730951
 10
14107.53623962748
 20
-6990.703434609405
  0
LWPOLYLINE
  5
45D5862FBB1CF1
330
45D5862FB9AFAE
100
AcDbEntity
  8
PIECE
100
AcDbPolyline
 90
        2
 70
     0
 43
0.0
 10
14145.53623962748
 20
-6978.193789609405
 10
14138.20813162748
 20
-6934.225315609404
  0
LWPOLYLINE
  5
45D5862FBB1CF2
330
45D5862FB9AFAE
100
AcDbEntity
  8
PIECE
100
AcDbPolyline
 90
        2
 70
     0
 43
0.0
 10
14147.83623962748
 20
-6978.003434609404
 10
14140.47683762748
 20
-6933.847196609405
  0
LWPOLYLINE
  5
45D5862FBB1CF3
330
45D5862FB9AFAE
100
AcDbEntity
  8
PIECE
100
AcDbPolyline
 90
        2
 70
     0
 43
0.0
 10
14145.53623962748
 20
-6988.403434609404
 10
14145.53623962748
 20
-6978.193789609405
  0
LWPOLYLINE
  5
45D5862FBB1CF4
330
45D5862FB9AFAE
100
AcDbEntity
  8
PIECE
100
AcDbPolyline
 90
        2
 70
     0
 43
0.0
 10
14147.83623962748
 20
-6988.403434609404
 10
14147.83623962748
 20
-6978.003434609404
  0
LWPOLYLINE
  5
45D5862FBB1CF5
330
45D5862FB9AFAE
100
AcDbEntity
  8
PIECE
100
AcDbPolyline
 90
        2
 70
     0
 43
0.0
 10
14160.83623962748
 20
-6993.003434609403
 10
14160.83623962748
 20
-6990.703434609405
  0
LWPOLYLINE
  5
45D5862FBB1CF6
330
45D5862FB9AFAE
100
AcDbEntity
  8
PIECE
100
AcDbPolyline
 90
        2
 70
     0
 43
0.0
 10
14154.88616262748
 20
-6993.003434609403
 10
14154.88616262748
 20
-6990.703434609405
  0
LWPOLYLINE
  5
45D5862FBB1CF7
330
45D5862FB9AFAE
100
AcDbEntity
  8
PIECE
100
AcDbPolyline
 90
        2
 70
     0
 43
0.0
 10
14150.13623962748
 20
-6993.003434609403
 42
-0.4142135623730951
 10
14145.53623962748
 20
-6988.403434609404
  0
LWPOLYLINE
  5
45D5862FBB1CF8
330
45D5862FB9AFAE
100
AcDbEntity
  8
PIECE
100
AcDbPolyline
 90
        2
 70
     0
 43
0.0
 10
14150.13623962748
 20
-6990.703434609405
 42
-0.4142135623730951
 10
14147.83623962748
 20
-6988.403434609404
  0
LWPOLYLINE
  5
45D5862FBB1CF9
330
45D5862FB9AFAE
100
AcDbEntity
  8
PIECE
100
AcDbPolyline
 90
        2
 70
     0
 43
0.0
 10
14150.13623962748
 20
-6990.703434609405
 10
14167.83623962748
 20
-6990.703434609405
  0
LWPOLYLINE
  5
45D5862FBB1CFA
330
45D5862FB9AFAE
100
AcDbEntity
  8
PIECE
100
AcDbPolyline
 90
        2
 70
     0
 43
0.0
 10
14150.13623962748
 20
-6993.003434609403
 10
14167.83623962748
 20
-6993.003434609403
  0
LWPOLYLINE
  5
45D5862FBB1CFB
330
45D5862FB9AFAE
100
AcDbEntity
  8
PIECE
100
AcDbPolyline
 90
        2
 70
     0
 43
0.0
 10
14167.83623962748
 20
-6993.003434609403
 10
14167.83623962748
 20
-6990.703434609405
  0
LWPOLYLINE
  5
45D5862FBB1CFC
330
45D5862FB9AFAE
100
AcDbEntity
  8
SETSUBAN
100
AcDbPolyline
 90
        2
 70
     0
 43
0.0
 10
14117.07242762748
 20
-6928.003434609404
 10
14140.31657762748
 20
-6928.003434609404
  0
LWPOLYLINE
  5
45D5862FBB1CFD
330
45D5862FB9AFAE
100
AcDbEntity
  8
SETSUBAN
100
AcDbPolyline
 90
        2
 70
     0
 43
0.0
 10
14117.07242762748
 20
-6927.203434609404
 10
14140.31657762748
 20
-6927.203434609404
  0
LWPOLYLINE
  5
45D5862FBB1CFE
330
45D5862FB9AFAE
100
AcDbEntity
  8
SETSUBAN
100
AcDbPolyline
 90
        2
 70
     0
 43
0.0
 10
14143.36983562748
 20
-6929.251389609405
 10
14149.33687062748
 20
-6943.802706609405
  0
LWPOLYLINE
  5
45D5862FBB1CFF
330
45D5862FB9AFAE
100
AcDbEntity
  8
SETSUBAN
100
AcDbPolyline
 90
        2
 70
     0
 43
0.0
 10
14142.62965162748
 20
-6929.554915609404
 10
14148.59668762748
 20
-6944.106232609404
  0
LWPOLYLINE
  5
45D5862FBB1D00
330
45D5862FB9AFAE
100
AcDbEntity
  8
SETSUBAN
100
AcDbPolyline
 90
        2
 70
     0
 43
0.0
 10
14148.12081062748
 20
-6946.750247609404
 10
14147.97681762748
 20
-6946.906274609403
  0
LWPOLYLINE
  5
45D5862FBB1D01
330
45D5862FB9AFAE
100
AcDbEntity
  8
SETSUBAN
100
AcDbPolyline
 90
        2
 70
     0
 43
0.0
 10
14148.70871362748
 20
-6947.292805609404
 10
14148.56472062748
 20
-6947.448832609405
  0
LWPOLYLINE
  5
45D5862FBB1D02
330
45D5862FB9AFAE
100
AcDbEntity
  8
SETSUBAN
100
AcDbPolyline
 90
        2
 70
     0
 43
0.0
 10
14147.61296662748
 20
-6952.736861609404
 10
14147.82536662748
 20
-6953.254824609405
  0
LWPOLYLINE
  5
45D5862FBB1D03
330
45D5862FB9AFAE
100
AcDbEntity
  8
SETSUBAN
100
AcDbPolyline
 90
        2
 70
     0
 43
0.0
 10
14146.87278262748
 20
-6953.040387609404
 10
14147.08518262748
 20
-6953.558350609404
  0
LWPOLYLINE
  5
45D5862FBB1D04
330
45D5862FB9AFAE
100
AcDbEntity
  8
SETSUBAN
100
AcDbPolyline
 90
        2
 70
     0
 43
0.0
 10
14147.08518262748
 20
-6953.558350609404
 10
14147.82536662748
 20
-6953.254824609405
  0
LWPOLYLINE
  5
45D5862FBB1D05
330
45D5862FB9AFAE
100
AcDbEntity
  8
SETSUBAN
100
AcDbPolyline
 90
        2
 70
     0
 43
0.0
 10
14114.72319662748
 20
-6929.648384609405
 10
14109.27758762748
 20
-6944.610070609404
  0
LWPOLYLINE
  5
45D5862FBB1D06
330
45D5862FB9AFAE
100
AcDbEntity
  8
SETSUBAN
100
AcDbPolyline
 90
        2
 70
     0
 43
0.0
 10
14113.97144262748
 20
-6929.374767609404
 10
14108.52583362748
 20
-6944.336454609403
  0
LWPOLYLINE
  5
45D5862FBB1D07
330
45D5862FB9AFAE
100
AcDbEntity
  8
SETSUBAN
100
AcDbPolyline
 90
        2
 70
     0
 43
0.0
 10
14109.85905262748
 20
-6947.232888609403
 10
14111.85457962748
 20
-6949.228415609404
  0
LWPOLYLINE
  5
45D5862FBB1D08
330
45D5862FB9AFAE
100
AcDbEntity
  8
SETSUBAN
100
AcDbPolyline
 90
        2
 70
     0
 43
0.0
 10
14109.29336662748
 20
-6947.798573609404
 10
14111.28889462748
 20
-6949.794100609404
  0
LWPOLYLINE
  5
45D5862FBB1D09
330
45D5862FB9AFAE
100
AcDbEntity
  8
SETSUBAN
100
AcDbPolyline
 90
        2
 70
     0
 43
0.0
 10
14147.61296620386
 20
-6952.736861973987
 42
-0.2914734195860877
 10
14148.56472008631
 20
-6947.448832902567
  0
LWPOLYLINE
  5
45D5862FBB1D0A
330
45D5862FB9AFAE
100
AcDbEntity
  8
SETSUBAN
100
AcDbPolyline
 90
        2
 70
     0
 43
0.0
 10
14148.59668683929
 20
-6944.106232927111
 42
-0.2914734195860877
 10
14148.12080989806
 20
-6946.750247462823
  0
LWPOLYLINE
  5
45D5862FBB1D0B
330
45D5862FB9AFAE
100
AcDbEntity
  8
SETSUBAN
100
AcDbPolyline
 90
        2
 70
     0
 43
0.0
 10
14146.87278245608
 20
-6953.04038795232
 42
-0.2914734195860877
 10
14147.97681695973
 20
-6946.906274229473
  0
LWPOLYLINE
  5
45D5862FBB1D0C
330
45D5862FB9AFAE
100
AcDbEntity
  8
SETSUBAN
100
AcDbPolyline
 90
        2
 70
     0
 43
0.0
 10
14149.33687058707
 20
-6943.802706948779
 42
-0.2914734195860877
 10
14148.70871302465
 20
-6947.292806135918
  0
LWPOLYLINE
  5
45D5862FBB1D0D
330
45D5862FB9AFAE
100
AcDbEntity
  8
SETSUBAN
100
AcDbPolyline
 90
        2
 70
     0
 43
0.0
 10
14140.31657762748
 20
-6928.003434609404
 42
-0.3043142763692328
 10
14142.62965183929
 20
-6929.554915927112
  0
LWPOLYLINE
  5
45D5862FBB1D0E
330
45D5862FB9AFAE
100
AcDbEntity
  8
SETSUBAN
100
AcDbPolyline
 90
        2
 70
     0
 43
0.0
 10
14140.31657762748
 20
-6927.203434609404
 42
-0.3043142763692328
 10
14143.36983558707
 20
-6929.25138994878
  0
LWPOLYLINE
  5
45D5862FBB1D0F
330
45D5862FB9AFAE
100
AcDbEntity
  8
SETSUBAN
100
AcDbPolyline
 90
        2
 70
     0
 43
0.0
 10
14114.72319607551
 20
-6929.648384251091
 42
-0.3152987888789835
 10
14117.07242762748
 20
-6928.003434609404
  0
LWPOLYLINE
  5
45D5862FBB1D10
330
45D5862FB9AFAE
100
AcDbEntity
  8
SETSUBAN
100
AcDbPolyline
 90
        2
 70
     0
 43
0.0
 10
14113.97144197889
 20
-6929.37476813643
 42
-0.3152987888789835
 10
14117.07242762748
 20
-6927.203434609404
  0
LWPOLYLINE
  5
45D5862FBB1D11
330
45D5862FB9AFAE
100
AcDbEntity
  8
SETSUBAN
100
AcDbPolyline
 90
        2
 70
     0
 43
0.0
 10
14109.85905267451
 20
-6947.232888562372
 42
-0.2914734195860875
 10
14109.27758807551
 20
-6944.610071251091
  0
LWPOLYLINE
  5
45D5862FBB1D12
330
45D5862FB9AFAE
100
AcDbEntity
  8
SETSUBAN
100
AcDbPolyline
 90
        2
 70
     0
 43
0.0
 10
14109.29336724956
 20
-6947.798573987319
 42
-0.2914734195860875
 10
14108.52583397888
 20
-6944.336455136429
  0
LWPOLYLINE
  5
45D5862FBB1D13
330
45D5862FB9AFAE
100
AcDbEntity
  8
SETSUBAN
100
AcDbPolyline
 90
        2
 70
     0
 43
0.0
 10
14111.28889379926
 20
-6949.794101437624
 42
-0.3152987888789835
 10
14111.58769530803
 20
-6951.488689002015
  0
LWPOLYLINE
  5
45D5862FBB1D14
330
45D5862FB9AFAE
100
AcDbEntity
  8
SETSUBAN
100
AcDbPolyline
 90
        2
 70
     0
 43
0.0
 10
14111.85457922421
 20
-6949.228416012674
 42
-0.3152987888789835
 10
14112.31274153766
 20
-6951.826783611406
  0
LWPOLYLINE
  5
45D5862FBB1D15
330
45D5862FB9AFAE
100
AcDbEntity
  8
SETSUBAN
100
AcDbPolyline
 90
        2
 70
     0
 43
0.0
 10
14159.60782162748
 20
-6979.503434609404
 42
-0.2914734195860875
 10
14156.88889826637
 20
-6977.771289394626
  0
LWPOLYLINE
  5
45D5862FBB1D16
330
45D5862FB9AFAE
100
AcDbEntity
  8
SETSUBAN
100
AcDbPolyline
 90
        2
 70
     0
 43
0.0
 10
14159.60782162748
 20
-6980.303434609405
 42
-0.2914734195860875
 10
14156.16385203674
 20
-6978.10938400402
  0
LWPOLYLINE
  5
45D5862FBB1D19
330
45D5862FB9AFAE
100
AcDbEntity
  8
SETSUBAN
100
AcDbPolyline
 90
        2
 70
     0
 43
0.0
 10
14099.33191798859
 20
-6977.771289394626
 42
-0.2914734195860876
 10
14096.61299462748
 20
-6979.503434609404
  0
LWPOLYLINE
  5
45D5862FBB1D1A
330
45D5862FB9AFAE
100
AcDbEntity
  8
SETSUBAN
100
AcDbPolyline
 90
        2
 70
     0
 43
0.0
 10
14100.05696421822
 20
-6978.10938400402
 42
-0.2914734195860876
 10
14096.61299462748
 20
-6980.303434609405
1001
ACAD
1000
ASC_BOUNDS
1002
{
1070
    16
1002
}
  0
LWPOLYLINE
  5
45D5862FBB1D1B
330
45D5862FB9AFAE
100
AcDbEntity
  8
PIECE
100
AcDbPolyline
 90
        2
 70
     0
 43
0.0
 10
14096.88616262748
 20
-6993.003434609403
 10
14096.88616262748
 20
-6990.703434609405
  0
LWPOLYLINE
  5
45D5862FBB1D1C
330
45D5862FB9AFAE
100
AcDbEntity
  8
PIECE
100
AcDbPolyline
 90
        2
 70
     0
 43
0.0
 10
14089.83623962748
 20
-6993.003434609403
 10
14089.83623962748
 20
-6990.703434609405
  0
LINE
  5
45D5862FBB1D47
330
45D5862FB9AFAE
100
AcDbEntity
  8
TXT1
100
AcDbLine
 10
14578.83623962748
 20
-7060.902536211127
 30
0.0
 11
14578.83623962748
 21
-6938.509337139723
 31
0.0
  0
LINE
  5
45D5862FBB1D49
330
45D5862FB9AFAE
100
AcDbEntity
  8
TXT1
100
AcDbLine
 10
14617.83623962748
 20
-6993.003434609403
 30
0.0
 11
14506.49114128287
 21
-6993.003434609403
 31
0.0
  0
LINE
  5
45D5862FBB1D4B
330
45D5862FB9AFAE
100
AcDbEntity
  8
TXT1
100
AcDbLine
 10
14767.02553500058
 20
-6993.003434609403
 30
0.0
 11
14767.02553500058
 21
-7093.009485116002
 31
0.0
  0
DIMENSION
  5
45D5862FBB1D65
330
45D5862FB9AFAE
100
AcDbEntity
  8
TXT1
100
AcDbDimension
  2
*D29
 10
14128.83623962748
 20
-6666.658614719297
 30
0.0
 11
14353.83623962748
 21
-6642.658614719296
 31
0.0
 70
    32
  1
４５０
 71
     5
 42
450.0000000000018
  3
STANDARD
100
AcDbAlignedDimension
 13
14578.83623962748
 23
-6749.357544021851
 33
0.0
 14
14128.83623962748
 24
-6749.357544021854
 34
0.0
100
AcDbRotatedDimension
1001
ACAD
1000
DSTYLE
1002
{
1070
   341
1005
45D5862FB9B039
1070
   343
1005
45D5862FB9B039
1070
   344
1005
45D5862FB9B039
1002
}
  0
LINE
  5
45D5862FBB1D7B
330
45D5862FB9AFAE
100
AcDbEntity
  8
TXT1
100
AcDbLine
 10
14128.83623962748
 20
-6666.658614719297
 30
0.0
 11
14054.44605251333
 21
-6666.658614719297
 31
0.0
  0
LINE
  5
45D5862FBB1D9A
330
45D5862FB9AFAE
100
AcDbEntity
  8
TXT1
100
AcDbLine
 10
14096.86610562748
 20
-6984.303434609405
 30
0.0
 11
14070.89518426078
 21
-6984.303434609405
 31
0.0
  0
LINE
  5
45D5862FBB1D9C
330
45D5862FB9AFAE
100
AcDbEntity
  8
TXT1
100
AcDbLine
 10
14072.40150862748
 20
-6984.303434609405
 30
0.0
 11
14070.89518426078
 21
-6982.797110242701
 31
0.0
  0
LINE
  5
45D5862FBB1D9D
330
45D5862FB9AFAE
100
AcDbEntity
  8
TXT1
100
AcDbLine
 10
14076.89163662748
 20
-6984.303434609405
 30
0.0
 11
14072.89163662748
 21
-6980.303434609405
 31
0.0
  0
LINE
  5
45D5862FBB1D9E
330
45D5862FB9AFAE
100
AcDbEntity
  8
TXT1
100
AcDbLine
 10
14081.38176462748
 20
-6984.303434609405
 30
0.0
 11
14077.38176462748
 21
-6980.303434609405
 31
0.0
  0
LINE
  5
45D5862FBB1D9F
330
45D5862FB9AFAE
100
AcDbEntity
  8
TXT1
100
AcDbLine
 10
14085.87189262748
 20
-6984.303434609405
 30
0.0
 11
14081.87189262748
 21
-6980.303434609405
 31
0.0
  0
LINE
  5
45D5862FBB1DA0
330
45D5862FB9AFAE
100
AcDbEntity
  8
TXT1
100
AcDbLine
 10
14090.36202062748
 20
-6984.303434609405
 30
0.0
 11
14086.36202062748
 21
-6980.303434609405
 31
0.0
  0
LINE
  5
45D5862FBB1DA1
330
45D5862FB9AFAE
100
AcDbEntity
  8
TXT1
100
AcDbLine
 10
14094.85214862748
 20
-6984.303434609405
 30
0.0
 11
14090.85214862748
 21
-6980.303434609405
 31
0.0
  0
LINE
  5
45D5862FBB1DA2
330
45D5862FB9AFAE
100
AcDbEntity
  8
TXT1
100
AcDbLine
 10
14098.82806452665
 20
-6983.789222508573
 30
0.0
 11
14095.34227662748
 21
-6980.303434609405
 31
0.0
  0
LINE
  5
45D5862FBB1DA3
330
45D5862FB9AFAE
100
AcDbEntity
  8
TXT1
100
AcDbLine
 10
14100.36146662748
 20
-6980.832495609405
 30
0.0
 11
14098.99397862748
 21
-6979.465007609404
 31
0.0
  0
TEXT
  5
45D5862FBB1DDC
330
45D5862FB9AFAE
100
AcDbEntity
  8
TXT1
100
AcDbText
 10
15059.74199665474
 20
-6868.44776545173
 30
0.0
 40
24.0
  1
ＪＦＥルーフ ロック５０
 11
15059.74199665474
 21
-6856.447765451729
 31
0.0
100
AcDbText
 73
     2
  0
LWPOLYLINE
  5
45D5862FBB1DDD
330
45D5862FB9AFAE
100
AcDbEntity
  8
TXT1
100
AcDbPolyline
 90
        2
 70
     0
 43
0.0
 10
15040.55751591031
 20
-6871.447765451728
 10
15399.95298706366
 20
-6871.447765451728
  0
LWPOLYLINE
  5
45D5862FBB1DDE
330
45D5862FB9AFAE
100
AcDbEntity
  8
DOUBUCHI
  6
DASHED
100
AcDbPolyline
 90
        2
 70
     0
 43
0.0
 10
15058.18635022489
 20
-7092.516456943307
 10
15754.3167009647
 20
-7092.516456943307
1001
ACAD
1000
ASC_BOUNDS
1002
{
1070
    16
1002
}
  0
LWPOLYLINE
  5
45D5862FBB1DDF
330
45D5862FB9AFAE
100
AcDbEntity
  8
DOUBUCHI
  6
DASHED
100
AcDbPolyline
 90
        2
 70
     0
 43
0.0
 10
15058.18635022489
 20
-6997.116456943304
 10
15754.3167009647
 20
-6997.116456943304
1001
ACAD
1000
ASC_BOUNDS
1002
{
1070
    16
1002
}
  0
LWPOLYLINE
  5
45D5862FBB1DE0
330
45D5862FB9AFAE
100
AcDbEntity
  8
DOUBUCHI
100
AcDbPolyline
 90
        2
 70
     0
 43
0.0
 10
15058.18635022489
 20
-7074.816456943304
 10
15754.3167009647
 20
-7074.816456943304
1001
ACAD
1000
ASC_BOUNDS
1002
{
1070
    16
1002
}
  0
LWPOLYLINE
  5
45D5862FBB1DE1
330
45D5862FB9AFAE
100
AcDbEntity
  8
DOUBUCHI
100
AcDbPolyline
 90
        2
 70
     0
 43
0.0
 10
15058.18635022489
 20
-7014.816456943305
 10
15754.3167009647
 20
-7014.816456943305
1001
ACAD
1000
ASC_BOUNDS
1002
{
1070
    16
1002
}
  0
LWPOLYLINE
  5
45D5862FBB1DE2
330
45D5862FB9AFAE
100
AcDbEntity
  8
DOUBUCHI
100
AcDbPolyline
 90
        2
 70
     0
 43
0.0
 10
15058.18635022489
 20
-6994.816456943304
 10
15754.3167009647
 20
-6994.816456943304
1001
ACAD
1000
ASC_BOUNDS
1002
{
1070
    16
1002
}
  0
LWPOLYLINE
  5
45D5862FBB1DE3
330
45D5862FB9AFAE
100
AcDbEntity
  8
DOUBUCHI
100
AcDbPolyline
 90
        2
 70
     0
 43
0.0
 10
15058.18635022489
 20
-7094.816456943305
 10
15754.3167009647
 20
-7094.816456943305
1001
ACAD
1000
ASC_BOUNDS
1002
{
1070
    16
1002
}
  0
LWPOLYLINE
  5
45D5862FBB1DE4
330
45D5862FB9AFAE
100
AcDbEntity
  8
CENTER
100
AcDbPolyline
 90
        2
 70
     0
 43
0.0
 10
15116.1274055916
 20
-6761.170566355753
 10
15116.1274055916
 20
-7130.874166520702
  0
TEXT
  5
45D5862FBB1DE5
330
45D5862FB9AFAE
100
AcDbEntity
  8
SCALE
100
AcDbText
 10
15039.36105334873
 20
-6658.959618122512
 30
0.0
 40
24.0
  1
＠４５０
 50
0.0000000000000159
 72
     4
 11
15092.16105334872
 21
-6646.959618122513
 31
0.0
100
AcDbText
  0
LWPOLYLINE
  5
45D5862FBB1DE6
330
45D5862FB9AFAE
100
AcDbEntity
  8
SCALE
100
AcDbPolyline
 90
        2
 70
     0
 43
0.0
 10
15041.69431650643
 20
-6668.460141504709
 10
15056.18320390077
 20
-6672.342427181248
  0
LWPOLYLINE
  5
45D5862FBB1DE7
330
45D5862FB9AFAE
100
AcDbEntity
  8
SCALE
100
AcDbPolyline
 90
        2
 70
     0
 43
0.0
 10
15041.69431650643
 20
-6668.460141504709
 10
15056.18320390077
 20
-6664.57785582817
  0
LWPOLYLINE
  5
45D5862FBB1DE8
330
45D5862FB9AFAE
100
AcDbEntity
  8
SCALE
100
AcDbPolyline
 90
        2
 70
     0
 43
0.0
 10
15176.1274055916
 20
-6668.460141504709
 10
15123.84214782731
 20
-6668.460141504709
  0
LWPOLYLINE
  5
45D5862FBB1DE9
330
45D5862FB9AFAE
100
AcDbEntity
  8
TXT1
100
AcDbPolyline
 90
        2
 70
     0
 43
0.0
 10
15347.21452109525
 20
-7147.082559796176
 10
15310.4488021219
 20
-7062.014611886
  0
TEXT
  5
45D5862FBB1DEA
330
45D5862FB9AFAE
100
AcDbEntity
  8
TXT1
100
AcDbText
 10
15354.44896128358
 20
-7142.807759477747
 30
0.0
 40
24.0
  1
モヤ
 11
15354.44896128358
 21
-7130.807759477749
 31
0.0
100
AcDbText
 73
     2
  0
TEXT
  5
45D5862FBB1DEB
330
45D5862FB9AFAE
100
AcDbEntity
  8
TXT1
100
AcDbText
 10
15341.65623211513
 20
-7177.879296185728
 30
0.0
 40
24.0
  1
（鉄骨工事）
 11
15341.65623211513
 21
-7165.879296185727
 31
0.0
100
AcDbText
 73
     2
  0
LWPOLYLINE
  5
45D5862FBB1DEC
330
45D5862FB9AFAE
100
AcDbEntity
  8
TXT1
100
AcDbPolyline
 90
        2
 70
     0
 43
0.0
 10
15347.21452109525
 20
-7147.082559796176
 10
15501.26413099562
 20
-7147.082559796176
  0
LWPOLYLINE
  5
45D5862FBB1DED
330
45D5862FB9AFAE
100
AcDbEntity
  8
TXT1
100
AcDbPolyline
 90
        2
 70
     0
 43
0.0
 10
15399.95298706366
 20
-6871.447765451728
 10
15446.64977148664
 20
-6977.0710769179
  0
INSERT
  5
45D5862FBB1DEE
330
45D5862FB9AFAE
100
AcDbEntity
  8
TXT1
100
AcDbBlockReference
  2
DOT
 10
15310.35202117073
 20
-7061.830327982569
 30
0.0
 41
-5.0
 42
5.0
 43
5.0
 50
314.9999999999999
  0
INSERT
  5
45D5862FBB1DEF
330
45D5862FB9AFAE
100
AcDbEntity
  8
URAUCHI
100
AcDbBlockReference
  2
BISU4
 10
15566.1274055916
 20
-6928.216456943305
 30
0.0
 50
270.0
  0
INSERT
  5
45D5862FBB1DF0
330
45D5862FB9AFAE
100
AcDbEntity
  8
SCALE
100
AcDbBlockReference
  2
DOT
 10
15133.5817735916
 20
-6970.843472943305
 30
0.0
 41
2.500000000000007
 42
2.5
 43
2.5
 50
240.0000000000002
  0
INSERT
  5
45D5862FBB1DF1
330
45D5862FB9AFAE
100
AcDbEntity
  8
TABUZAI
100
AcDbBlockReference
  2
00000005
 10
15584.5253065916
 20
-7038.248887943305
 30
0.0
 41
-1.0
 50
270.0
  0
INSERT
  5
45D5862FBB1DF2
330
45D5862FB9AFAE
100
AcDbEntity
  8
URABARI
100
AcDbBlockReference
  2
*X27
 10
16032.7158015916
 20
-7900.767918943306
 30
0.0
 41
-1.0
1001
ACAD
1000
HATCH
1002
{
1070
    16
1000
ANSI31
1040
1.0
1040
0.0
1002
}
  0
INSERT
  5
45D5862FBB1DF3
330
45D5862FB9AFAE
100
AcDbEntity
  8
URABARI
100
AcDbBlockReference
  2
*X28
 10
16032.7158015916
 20
-7900.767918943306
 30
0.0
 41
-1.0
1001
ACAD
1000
HATCH
1002
{
1070
    16
1000
ANSI31
1040
1.0
1040
0.0
1002
}
  0
INSERT
  5
45D5862FBB1DF4
330
45D5862FB9AFAE
100
AcDbEntity
  8
TABUZAI
100
AcDbBlockReference
  2
00000005
 10
15526.5253065916
 20
-7038.248887943305
 30
0.0
 41
-1.0
 50
270.0
  0
INSERT
  5
45D5862FBB1DF5
330
45D5862FB9AFAE
100
AcDbEntity
  8
TABUZAI
100
AcDbBlockReference
  2
00000005
 10
15076.5253065916
 20
-7038.248887943305
 30
0.0
 41
-1.0
 50
270.0
  0
INSERT
  5
45D5862FBB1DF6
330
45D5862FB9AFAE
100
AcDbEntity
  8
TABUZAI
100
AcDbBlockReference
  2
00000005
 10
15134.5253065916
 20
-7038.248887943305
 30
0.0
 41
-1.0
 50
270.0
  0
LWPOLYLINE
  5
45D5862FBB1DF7
330
45D5862FB9AFAE
100
AcDbEntity
  8
URABARI
  6
HIDDEN
100
AcDbPolyline
 90
        2
 70
     0
 43
0.0
 10
15533.0148935916
 20
-6986.116456943306
 10
15147.7882545916
 20
-6986.116456943306
1001
ACAD
1000
ASC_BOUNDS
1002
{
1070
    16
1002
}
  0
LWPOLYLINE
  5
45D5862FBB1DF8
330
45D5862FB9AFAE
100
AcDbEntity
  8
SETSUBAN
100
AcDbPolyline
 90
        2
 70
     0
 43
0.0
 10
15176.151058786
 20
-6979.250180835194
 42
-0.0110237584477973
 10
15339.72016271136
 20
-6975.316456479122
  0
LWPOLYLINE
  5
45D5862FBB1DF9
330
45D5862FB9AFAE
100
AcDbEntity
  8
SETSUBAN
100
AcDbPolyline
 90
        2
 70
     0
 43
0.0
 10
15533.9041605916
 20
-6982.116456943306
 10
15146.8989875916
 20
-6982.116456943306
1001
ACAD
1000
ASC_BOUNDS
1002
{
1070
    16
1002
}
  0
LWPOLYLINE
  5
45D5862FBB1DFA
330
45D5862FB9AFAE
100
AcDbEntity
  8
SETSUBAN
100
AcDbPolyline
 90
        2
 70
     0
 43
0.0
 10
15533.9041605916
 20
-6981.316456943305
 10
15146.8989875916
 20
-6981.316456943305
  0
LWPOLYLINE
  5
45D5862FBB1DFB
330
45D5862FB9AFAE
100
AcDbEntity
  8
SETSUBAN
100
AcDbPolyline
 90
        2
 70
     0
 43
0.0
 10
15339.72014947183
 20
-6975.316456479122
 42
-0.0110237584477973
 10
15503.2892533972
 20
-6979.250180835194
  0
LWPOLYLINE
  5
45D5862FBB1DFC
330
45D5862FB9AFAE
100
AcDbEntity
  8
URABARI
  6
HIDDEN
100
AcDbPolyline
 90
        2
 70
     0
 43
0.0
 10
15578.9955885916
 20
-6931.747345943306
 10
15584.9626235916
 20
-6946.298661943306
  0
LWPOLYLINE
  5
45D5862FBB1DFD
330
45D5862FB9AFAE
100
AcDbEntity
  8
SETSUBAN
100
AcDbPolyline
 90
        2
 70
     0
 43
0.0
 10
15579.9208175916
 20
-6931.367937943305
 10
15585.8878535916
 20
-6945.919254943305
  0
LWPOLYLINE
  5
45D5862FBB1DFE
330
45D5862FB9AFAE
100
AcDbEntity
  8
SETSUBAN
100
AcDbPolyline
 90
        2
 70
     0
 43
0.0
 10
15580.6610015916
 20
-6931.064411943305
 10
15586.6280365916
 20
-6945.615728943306
  0
LWPOLYLINE
  5
45D5862FBB1DFF
330
45D5862FB9AFAE
100
AcDbEntity
  8
SETSUBAN
100
AcDbPolyline
 90
        2
 70
     0
 43
0.0
 10
15577.6077435916
 20
-6929.016456943306
 42
-0.3043142763692328
 10
15580.66100155119
 20
-6931.064412282681
  0
LWPOLYLINE
  5
45D5862FBB1E00
330
45D5862FB9AFAE
100
AcDbEntity
  8
PIECE
100
AcDbPolyline
 90
        2
 70
     0
 43
0.0
 10
15585.1274055916
 20
-6979.816456943305
 10
15577.7680035916
 20
-6935.660218943304
  0
LWPOLYLINE
  5
45D5862FBB1E01
330
45D5862FB9AFAE
100
AcDbEntity
  8
PIECE
100
AcDbPolyline
 90
        2
 70
     0
 43
0.0
 10
15582.8274055916
 20
-6980.006811943304
 10
15575.4992975916
 20
-6936.038337943306
  0
LWPOLYLINE
  5
45D5862FBB1E02
330
45D5862FB9AFAE
100
AcDbEntity
  8
PIECE
100
AcDbPolyline
 90
        2
 70
     0
 43
0.0
 10
15577.9333245916
 20
-6936.816456943304
 10
15584.3068755916
 20
-6946.816456943306
  0
LWPOLYLINE
  5
45D5862FBB1E03
330
45D5862FB9AFAE
100
AcDbEntity
  8
PIECE
100
AcDbPolyline
 90
        2
 70
     0
 43
0.0
 10
15578.9040955916
 20
-6942.618884943304
 10
15582.3673265916
 20
-6948.052638943306
  0
LWPOLYLINE
  5
45D5862FBB1E04
330
45D5862FB9AFAE
100
AcDbEntity
  8
URABARI
  6
HIDDEN
100
AcDbPolyline
 90
        2
 70
     0
 43
0.0
 10
15583.38271173547
 20
-6955.076790759139
 42
-0.2914734195860877
 10
15584.67709701561
 20
-6947.885071222005
  0
LWPOLYLINE
  5
45D5862FBB1E05
330
45D5862FB9AFAE
100
AcDbEntity
  8
URABARI
  6
HIDDEN
100
AcDbPolyline
 90
        2
 70
     0
 43
0.0
 10
15584.96262311868
 20
-6946.29866273393
 42
-0.2914734195860877
 10
15584.67709695395
 20
-6947.885071455354
  0
LWPOLYLINE
  5
45D5862FBB1E06
330
45D5862FB9AFAE
100
AcDbEntity
  8
SETSUBAN
100
AcDbPolyline
 90
        2
 70
     0
 43
0.0
 10
15585.4119765916
 20
-6948.563269943305
 10
15585.2679835916
 20
-6948.719296943306
  0
LWPOLYLINE
  5
45D5862FBB1E07
330
45D5862FB9AFAE
100
AcDbEntity
  8
SETSUBAN
100
AcDbPolyline
 90
        2
 70
     0
 43
0.0
 10
15585.9998795916
 20
-6949.105827943306
 10
15585.8558865916
 20
-6949.261854943306
  0
LWPOLYLINE
  5
45D5862FBB1E08
330
45D5862FB9AFAE
100
AcDbEntity
  8
SETSUBAN
100
AcDbPolyline
 90
        2
 70
     0
 43
0.0
 10
15584.3763485916
 20
-6955.371372943305
 10
15585.1165325916
 20
-6955.067846943307
  0
LWPOLYLINE
  5
45D5862FBB1E09
330
45D5862FB9AFAE
100
AcDbEntity
  8
SETSUBAN
100
AcDbPolyline
 90
        2
 70
     0
 43
0.0
 10
15584.1639485916
 20
-6954.853409943305
 10
15584.3763485916
 20
-6955.371372943305
  0
LWPOLYLINE
  5
45D5862FBB1E0A
330
45D5862FB9AFAE
100
AcDbEntity
  8
SETSUBAN
100
AcDbPolyline
 90
        2
 70
     0
 43
0.0
 10
15584.9041325916
 20
-6954.549883943305
 10
15585.1165325916
 20
-6955.067846943307
  0
LWPOLYLINE
  5
45D5862FBB1E0B
330
45D5862FB9AFAE
100
AcDbEntity
  8
SETSUBAN
100
AcDbPolyline
 90
        2
 70
     0
 43
0.0
 10
15584.1639484202
 20
-6954.853410286222
 42
-0.2914734195860877
 10
15585.26798292384
 20
-6948.719296563374
  0
LWPOLYLINE
  5
45D5862FBB1E0C
330
45D5862FB9AFAE
100
AcDbEntity
  8
SETSUBAN
100
AcDbPolyline
 90
        2
 70
     0
 43
0.0
 10
15584.90413216798
 20
-6954.549884307889
 42
-0.2914734195860877
 10
15585.85588605043
 20
-6949.261855236469
  0
LWPOLYLINE
  5
45D5862FBB1E0D
330
45D5862FB9AFAE
100
AcDbEntity
  8
SETSUBAN
100
AcDbPolyline
 90
        2
 70
     0
 43
0.0
 10
15586.62803655119
 20
-6945.61572928268
 42
-0.2914734195860877
 10
15585.99987898877
 20
-6949.10582846982
  0
LWPOLYLINE
  5
45D5862FBB1E0E
330
45D5862FB9AFAE
100
AcDbEntity
  8
SETSUBAN
100
AcDbPolyline
 90
        2
 70
     0
 43
0.0
 10
15585.88785280341
 20
-6945.919255261014
 42
-0.2914734195860877
 10
15585.41197586218
 20
-6948.563269796725
  0
LWPOLYLINE
  5
45D5862FBB1E0F
330
45D5862FB9AFAE
100
AcDbEntity
  8
PIECE
100
AcDbPolyline
 90
        2
 70
     0
 43
0.0
 10
15605.1274055916
 20
-6994.816456943304
 10
15605.1274055916
 20
-6992.516456943305
  0
LWPOLYLINE
  5
45D5862FBB1E10
330
45D5862FB9AFAE
100
AcDbEntity
  8
PIECE
100
AcDbPolyline
 90
        2
 70
     0
 43
0.0
 10
15587.4274055916
 20
-6994.816456943304
 10
15605.1274055916
 20
-6994.816456943304
  0
LWPOLYLINE
  5
45D5862FBB1E11
330
45D5862FB9AFAE
100
AcDbEntity
  8
PIECE
100
AcDbPolyline
 90
        2
 70
     0
 43
0.0
 10
15587.4274055916
 20
-6992.516456943305
 10
15605.1274055916
 20
-6992.516456943305
  0
LWPOLYLINE
  5
45D5862FBB1E12
330
45D5862FB9AFAE
100
AcDbEntity
  8
PIECE
100
AcDbPolyline
 90
        2
 70
     0
 43
0.0
 10
15585.1274055916
 20
-6990.216456943305
 10
15585.1274055916
 20
-6979.816456943305
  0
LWPOLYLINE
  5
45D5862FBB1E13
330
45D5862FB9AFAE
100
AcDbEntity
  8
PIECE
100
AcDbPolyline
 90
        2
 70
     0
 43
0.0
 10
15582.8274055916
 20
-6990.216456943305
 10
15582.8274055916
 20
-6980.006811943304
  0
LWPOLYLINE
  5
45D5862FBB1E14
330
45D5862FB9AFAE
100
AcDbEntity
  8
PIECE
100
AcDbPolyline
 90
        2
 70
     0
 43
0.0
 10
15587.4274055916
 20
-6992.516456943305
 42
-0.4142135623730951
 10
15585.1274055916
 20
-6990.216456943305
  0
LWPOLYLINE
  5
45D5862FBB1E15
330
45D5862FB9AFAE
100
AcDbEntity
  8
PIECE
100
AcDbPolyline
 90
        2
 70
     0
 43
0.0
 10
15587.4274055916
 20
-6994.816456943304
 42
-0.4142135623730951
 10
15582.8274055916
 20
-6990.216456943305
  0
LWPOLYLINE
  5
45D5862FBB1E16
330
45D5862FB9AFAE
100
AcDbEntity
  8
PIECE
100
AcDbPolyline
 90
        2
 70
     0
 43
0.0
 10
15582.3673265916
 20
-6948.052638943306
 10
15584.3068755916
 20
-6946.816456943306
  0
LWPOLYLINE
  5
45D5862FBB1E17
330
45D5862FB9AFAE
100
AcDbEntity
  8
URABARI
  6
HIDDEN
100
AcDbPolyline
 90
        2
 70
     0
 43
0.0
 10
15536.64012473974
 20
-6983.80692999027
 42
-0.2914734195860876
 10
15533.0148935916
 20
-6986.116456943306
1001
ACAD
1000
ASC_BOUNDS
1002
{
1070
    16
1002
}
  0
LWPOLYLINE
  5
45D5862FBB1E18
330
45D5862FB9AFAE
100
AcDbEntity
  8
URABARI
  6
HIDDEN
100
AcDbPolyline
 90
        2
 70
     0
 43
0.0
 10
15536.6401245916
 20
-6983.806929943305
 10
15550.5102155916
 20
-6954.062423943305
  0
LWPOLYLINE
  5
45D5862FBB1E19
330
45D5862FB9AFAE
100
AcDbEntity
  8
URABARI
  6
HIDDEN
100
AcDbPolyline
 90
        2
 70
     0
 43
0.0
 10
15549.85285196951
 20
-6950.33433156539
 42
-0.3152987888789835
 10
15550.51021528882
 20
-6954.062424207049
  0
LWPOLYLINE
  5
45D5862FBB1E1A
330
45D5862FB9AFAE
100
AcDbEntity
  8
URABARI
  6
HIDDEN
100
AcDbPolyline
 90
        2
 70
     0
 43
0.0
 10
15547.85732541982
 20
-6948.338804115086
 42
-0.2914734195860875
 10
15547.50844666042
 20
-6946.765113728317
  0
LWPOLYLINE
  5
45D5862FBB1E1B
330
45D5862FB9AFAE
100
AcDbEntity
  8
URABARI
  6
HIDDEN
100
AcDbPolyline
 90
        2
 70
     0
 43
0.0
 10
15547.8573245916
 20
-6948.338803943305
 10
15549.8528525916
 20
-6950.334330943305
  0
LWPOLYLINE
  5
45D5862FBB1E1C
330
45D5862FB9AFAE
100
AcDbEntity
  8
URABARI
  6
HIDDEN
100
AcDbPolyline
 90
        2
 70
     0
 43
0.0
 10
15552.9540545916
 20
-6931.803426943305
 10
15547.5084465916
 20
-6946.765112943305
  0
LWPOLYLINE
  5
45D5862FBB1E1D
330
45D5862FB9AFAE
100
AcDbEntity
  8
URABARI
  6
HIDDEN
100
AcDbPolyline
 90
        2
 70
     0
 43
0.0
 10
15554.3635935916
 20
-6930.816456943304
 10
15577.6077435916
 20
-6930.816456943304
  0
LWPOLYLINE
  5
45D5862FBB1E1E
330
45D5862FB9AFAE
100
AcDbEntity
  8
URABARI
  6
HIDDEN
100
AcDbPolyline
 90
        2
 70
     0
 43
0.0
 10
15577.6077435916
 20
-6930.816456943304
 42
-0.3043142763692328
 10
15578.99558811868
 20
-6931.74734573393
  0
LWPOLYLINE
  5
45D5862FBB1E1F
330
45D5862FB9AFAE
100
AcDbEntity
  8
SETSUBAN
100
AcDbPolyline
 90
        2
 70
     0
 43
0.0
 10
15577.6077435916
 20
-6929.816456943306
 42
-0.3043142763692328
 10
15579.92081780341
 20
-6931.367938261013
  0
LWPOLYLINE
  5
45D5862FBB1E20
330
45D5862FB9AFAE
100
AcDbEntity
  8
SETSUBAN
100
AcDbPolyline
 90
        2
 70
     0
 43
0.0
 10
15551.26260794301
 20
-6931.187790470331
 42
-0.3152987888789835
 10
15554.3635935916
 20
-6929.016456943306
  0
LWPOLYLINE
  5
45D5862FBB1E21
330
45D5862FB9AFAE
100
AcDbEntity
  8
SETSUBAN
100
AcDbPolyline
 90
        2
 70
     0
 43
0.0
 10
15552.01436203963
 20
-6931.461406584992
 42
-0.3152987888789835
 10
15554.3635935916
 20
-6929.816456943306
  0
LWPOLYLINE
  5
45D5862FBB1E22
330
45D5862FB9AFAE
100
AcDbEntity
  8
SETSUBAN
100
AcDbPolyline
 90
        2
 70
     0
 43
0.0
 10
15554.3635935916
 20
-6929.016456943306
 10
15577.6077435916
 20
-6929.016456943306
  0
LWPOLYLINE
  5
45D5862FBB1E23
330
45D5862FB9AFAE
100
AcDbEntity
  8
SETSUBAN
100
AcDbPolyline
 90
        2
 70
     0
 43
0.0
 10
15554.3635935916
 20
-6929.816456943306
 10
15577.6077435916
 20
-6929.816456943306
  0
LWPOLYLINE
  5
45D5862FBB1E24
330
45D5862FB9AFAE
100
AcDbEntity
  8
SETSUBAN
100
AcDbPolyline
 90
        2
 70
     0
 43
0.0
 10
15547.1502185916
 20
-6949.045910943304
 10
15549.1457455916
 20
-6951.041437943306
  0
LWPOLYLINE
  5
45D5862FBB1E25
330
45D5862FB9AFAE
100
AcDbEntity
  8
SETSUBAN
100
AcDbPolyline
 90
        2
 70
     0
 43
0.0
 10
15552.0143625916
 20
-6931.461406943306
 10
15546.5687535916
 20
-6946.423092943305
  0
LWPOLYLINE
  5
45D5862FBB1E26
330
45D5862FB9AFAE
100
AcDbEntity
  8
SETSUBAN
100
AcDbPolyline
 90
        2
 70
     0
 43
0.0
 10
15551.2626085916
 20
-6931.187789943305
 10
15545.8169995916
 20
-6946.149476943304
  0
LWPOLYLINE
  5
45D5862FBB1E27
330
45D5862FB9AFAE
100
AcDbEntity
  8
SETSUBAN
100
AcDbPolyline
 90
        2
 70
     0
 43
0.0
 10
15546.58453321368
 20
-6949.61159632122
 42
-0.2914734195860875
 10
15545.816999943
 20
-6946.149477470331
  0
LWPOLYLINE
  5
45D5862FBB1E28
330
45D5862FB9AFAE
100
AcDbEntity
  8
SETSUBAN
100
AcDbPolyline
 90
        2
 70
     0
 43
0.0
 10
15547.15021863863
 20
-6949.045910896273
 42
-0.2914734195860875
 10
15546.56875403963
 20
-6946.423093584993
  0
LWPOLYLINE
  5
45D5862FBB1E29
330
45D5862FB9AFAE
100
AcDbEntity
  8
SETSUBAN
100
AcDbPolyline
 90
        2
 70
     0
 43
0.0
 10
15546.5845325916
 20
-6949.611595943306
 10
15548.5800605916
 20
-6951.607122943305
  0
LWPOLYLINE
  5
45D5862FBB1E2A
330
45D5862FB9AFAE
100
AcDbEntity
  8
SETSUBAN
100
AcDbPolyline
 90
        2
 70
     0
 43
0.0
 10
15548.58005976338
 20
-6951.607123771525
 42
-0.3152987888789835
 10
15548.87886127215
 20
-6953.301711335917
  0
LWPOLYLINE
  5
45D5862FBB1E2B
330
45D5862FB9AFAE
100
AcDbEntity
  8
SETSUBAN
100
AcDbPolyline
 90
        2
 70
     0
 43
0.0
 10
15549.14574518833
 20
-6951.041438346575
 42
-0.3152987888789835
 10
15549.60390750178
 20
-6953.639805945307
  0
LWPOLYLINE
  5
45D5862FBB1E2C
330
45D5862FB9AFAE
100
AcDbEntity
  8
SETSUBAN
100
AcDbPolyline
 90
        2
 70
     0
 43
0.0
 10
15536.6230835916
 20
-6979.584311943305
 10
15548.8788615916
 20
-6953.301710943304
  0
LWPOLYLINE
  5
45D5862FBB1E2D
330
45D5862FB9AFAE
100
AcDbEntity
  8
SETSUBAN
100
AcDbPolyline
 90
        2
 70
     0
 43
0.0
 10
15537.3481295916
 20
-6979.922405943305
 10
15549.6039075916
 20
-6953.639805943305
  0
LWPOLYLINE
  5
45D5862FBB1E2E
330
45D5862FB9AFAE
100
AcDbEntity
  8
PIECE
100
AcDbPolyline
 90
        2
 70
     0
 43
0.0
 10
15573.2305925916
 20
-6934.116456943304
 10
15559.0523425916
 20
-6934.116456943304
  0
LWPOLYLINE
  5
45D5862FBB1E2F
330
45D5862FB9AFAE
100
AcDbEntity
  8
PIECE
100
AcDbPolyline
 90
        2
 70
     0
 43
0.0
 10
15549.4274055916
 20
-6990.216456943305
 10
15549.4274055916
 20
-6980.007528943305
  0
LWPOLYLINE
  5
45D5862FBB1E30
330
45D5862FB9AFAE
100
AcDbEntity
  8
PIECE
100
AcDbPolyline
 90
        2
 70
     0
 43
0.0
 10
15547.1274055916
 20
-6990.216456943305
 10
15547.1274055916
 20
-6979.816456943305
  0
LWPOLYLINE
  5
45D5862FBB1E31
330
45D5862FB9AFAE
100
AcDbEntity
  8
PIECE
100
AcDbPolyline
 90
        2
 70
     0
 43
0.0
 10
15544.8274055916
 20
-6992.516456943305
 10
15527.1274055916
 20
-6992.516456943305
  0
LWPOLYLINE
  5
45D5862FBB1E32
330
45D5862FB9AFAE
100
AcDbEntity
  8
PIECE
100
AcDbPolyline
 90
        2
 70
     0
 43
0.0
 10
15544.8274055916
 20
-6994.816456943304
 10
15527.1274055916
 20
-6994.816456943304
  0
LWPOLYLINE
  5
45D5862FBB1E33
330
45D5862FB9AFAE
100
AcDbEntity
  8
PIECE
100
AcDbPolyline
 90
        2
 70
     0
 43
0.0
 10
15527.1274055916
 20
-6994.816456943304
 10
15527.1274055916
 20
-6992.516456943305
  0
LWPOLYLINE
  5
45D5862FBB1E34
330
45D5862FB9AFAE
100
AcDbEntity
  8
PIECE
100
AcDbPolyline
 90
        2
 70
     0
 43
0.0
 10
15547.1274055916
 20
-6990.216456943305
 42
-0.4142135623730951
 10
15544.8274055916
 20
-6992.516456943305
  0
LWPOLYLINE
  5
45D5862FBB1E35
330
45D5862FB9AFAE
100
AcDbEntity
  8
PIECE
100
AcDbPolyline
 90
        2
 70
     0
 43
0.0
 10
15549.4274055916
 20
-6990.216456943305
 42
-0.4142135623730951
 10
15544.8274055916
 20
-6994.816456943304
  0
LWPOLYLINE
  5
45D5862FBB1E36
330
45D5862FB9AFAE
100
AcDbEntity
  8
PIECE
100
AcDbPolyline
 90
        2
 70
     0
 43
0.0
 10
15573.2305925916
 20
-6931.816456943305
 10
15559.0523425916
 20
-6931.816456943305
  0
LWPOLYLINE
  5
45D5862FBB1E37
330
45D5862FB9AFAE
100
AcDbEntity
  8
PIECE
100
AcDbPolyline
 90
        2
 70
     0
 43
0.0
 10
15554.5154005916
 20
-6935.657406943305
 10
15547.1274055916
 20
-6979.816456943305
  0
LWPOLYLINE
  5
45D5862FBB1E38
330
45D5862FB9AFAE
100
AcDbEntity
  8
PIECE
100
AcDbPolyline
 90
        2
 70
     0
 43
0.0
 10
15556.7838715916
 20
-6936.036931943306
 10
15549.4274055916
 20
-6980.007528943305
  0
LWPOLYLINE
  5
45D5862FBB1E39
330
45D5862FB9AFAE
100
AcDbEntity
  8
PIECE
100
AcDbPolyline
 90
        2
 70
     0
 43
0.0
 10
15556.78387153121
 20
-6936.036932177062
 42
-0.3664534687303901
 10
15559.0523425916
 20
-6934.116456943304
  0
LWPOLYLINE
  5
45D5862FBB1E3A
330
45D5862FB9AFAE
100
AcDbEntity
  8
PIECE
100
AcDbPolyline
 90
        2
 70
     0
 43
0.0
 10
15573.2305925916
 20
-6934.116456943304
 42
-0.3666291875374781
 10
15575.4992983802
 20
-6936.038337855269
  0
LWPOLYLINE
  5
45D5862FBB1E3B
330
45D5862FB9AFAE
100
AcDbEntity
  8
PIECE
100
AcDbPolyline
 90
        2
 70
     0
 43
0.0
 10
15573.2305925916
 20
-6931.816456943305
 42
-0.3666291875374781
 10
15577.76800416881
 20
-6935.660218767235
  0
LWPOLYLINE
  5
45D5862FBB1E3C
330
45D5862FB9AFAE
100
AcDbEntity
  8
PIECE
100
AcDbPolyline
 90
        2
 70
     0
 43
0.0
 10
15554.51540047083
 20
-6935.657407410814
 42
-0.3664534687303901
 10
15559.0523425916
 20
-6931.816456943305
  0
LWPOLYLINE
  5
45D5862FBB1E3D
330
45D5862FB9AFAE
100
AcDbEntity
  8
PIECE
100
AcDbPolyline
 90
        2
 70
     0
 43
0.0
 10
15554.3214865916
 20
-6936.816456943304
 10
15547.9479345916
 20
-6946.816456943306
  0
LWPOLYLINE
  5
45D5862FBB1E3E
330
45D5862FB9AFAE
100
AcDbEntity
  8
PIECE
100
AcDbPolyline
 90
        2
 70
     0
 43
0.0
 10
15553.3507155916
 20
-6942.618884943304
 10
15549.8874845916
 20
-6948.052638943306
  0
LWPOLYLINE
  5
45D5862FBB1E3F
330
45D5862FB9AFAE
100
AcDbEntity
  8
PIECE
100
AcDbPolyline
 90
        2
 70
     0
 43
0.0
 10
15549.8874845916
 20
-6948.052638943306
 10
15547.9479345916
 20
-6946.816456943306
  0
LWPOLYLINE
  5
45D5862FBB1E40
330
45D5862FB9AFAE
100
AcDbEntity
  8
PIECE
100
AcDbPolyline
 90
        2
 70
     0
 43
0.0
 10
15534.1773285916
 20
-6994.816456943304
 10
15534.1773285916
 20
-6992.516456943305
  0
LWPOLYLINE
  5
45D5862FBB1E41
330
45D5862FB9AFAE
100
AcDbEntity
  8
PIECE
100
AcDbPolyline
 90
        2
 70
     0
 43
0.0
 10
15540.1274055916
 20
-6994.816456943304
 10
15540.1274055916
 20
-6992.516456943305
  0
LWPOLYLINE
  5
45D5862FBB1E42
330
45D5862FB9AFAE
100
AcDbEntity
  8
SETSUBAN
100
AcDbPolyline
 90
        2
 70
     0
 43
0.0
 10
15537.34813018234
 20
-6979.922406337921
 42
-0.2914734195860876
 10
15533.9041605916
 20
-6982.116456943306
  0
LWPOLYLINE
  5
45D5862FBB1E43
330
45D5862FB9AFAE
100
AcDbEntity
  8
SETSUBAN
100
AcDbPolyline
 90
        2
 70
     0
 43
0.0
 10
15536.62308395271
 20
-6979.584311728527
 42
-0.2914734195860876
 10
15533.9041605916
 20
-6981.316456943305
  0
LWPOLYLINE
  5
45D5862FBB1E44
330
45D5862FB9AFAE
100
AcDbEntity
  8
SETSUBAN
100
AcDbPolyline
 90
        2
 70
     0
 43
0.0
 10
15083.90416059159
 20
-6981.316456943305
 10
15058.18635022489
 20
-6981.316456943305
  0
LWPOLYLINE
  5
45D5862FBB1E45
330
45D5862FB9AFAE
100
AcDbEntity
  8
SETSUBAN
100
AcDbPolyline
 90
        2
 70
     0
 43
0.0
 10
15083.90416059159
 20
-6982.116456943306
 10
15058.18635022489
 20
-6982.116456943306
1001
ACAD
1000
ASC_BOUNDS
1002
{
1070
    16
1002
}
  0
LWPOLYLINE
  5
45D5862FBB1E46
330
45D5862FB9AFAE
100
AcDbEntity
  8
SETSUBAN
100
AcDbPolyline
 90
        2
 70
     0
 43
0.0
 10
15174.7201555916
 20
-6981.316456943305
 10
15174.7201555916
 20
-6980.748588943305
  0
LWPOLYLINE
  5
45D5862FBB1E47
330
45D5862FB9AFAE
100
AcDbEntity
  8
SETSUBAN
100
AcDbPolyline
 90
        2
 70
     0
 43
0.0
 10
15174.7201555916
 20
-6980.748588943305
 42
-0.4007772685159518
 10
15176.15104311719
 20
-6979.250181967252
  0
LWPOLYLINE
  5
45D5862FBB1E48
330
45D5862FB9AFAE
100
AcDbEntity
  8
URABARI
  6
HIDDEN
100
AcDbPolyline
 90
        2
 70
     0
 43
0.0
 10
15087.78250273974
 20
-6983.80692999027
 42
-0.2914734195860876
 10
15084.1572715916
 20
-6986.116456943306
1001
ACAD
1000
ASC_BOUNDS
1002
{
1070
    16
1002
}
  0
LWPOLYLINE
  5
45D5862FBB1E49
330
45D5862FB9AFAE
100
AcDbEntity
  8
URABARI
  6
HIDDEN
100
AcDbPolyline
 90
        2
 70
     0
 43
0.0
 10
15087.7825025916
 20
-6983.806929943305
 10
15101.3531725916
 20
-6954.704533943306
1001
ACAD
1000
ASC_BOUNDS
1002
{
1070
    16
1002
}
  0
LWPOLYLINE
  5
45D5862FBB1E4A
330
45D5862FB9AFAE
100
AcDbEntity
  8
PIECE
100
AcDbPolyline
 90
        2
 70
     0
 43
0.0
 10
15094.8274055916
 20
-6994.816456943304
 10
15077.1274055916
 20
-6994.816456943304
  0
LWPOLYLINE
  5
45D5862FBB1E4B
330
45D5862FB9AFAE
100
AcDbEntity
  8
PIECE
100
AcDbPolyline
 90
        2
 70
     0
 43
0.0
 10
15094.8274055916
 20
-6992.516456943305
 10
15077.1274055916
 20
-6992.516456943305
  0
LWPOLYLINE
  5
45D5862FBB1E4C
330
45D5862FB9AFAE
100
AcDbEntity
  8
SETSUBAN
100
AcDbPolyline
 90
        2
 70
     0
 43
0.0
 10
15087.3481295916
 20
-6979.922405943305
 10
15099.6039075916
 20
-6953.639805943305
1001
ACAD
1000
ASC_BOUNDS
1002
{
1070
    16
1002
}
  0
LWPOLYLINE
  5
45D5862FBB1E4D
330
45D5862FB9AFAE
100
AcDbEntity
  8
SETSUBAN
100
AcDbPolyline
 90
        2
 70
     0
 43
0.0
 10
15086.6230835916
 20
-6979.584311943305
 10
15098.8788615916
 20
-6953.301710943304
  0
LWPOLYLINE
  5
45D5862FBB1E4E
330
45D5862FB9AFAE
100
AcDbEntity
  8
URABARI
  6
HIDDEN
100
AcDbPolyline
 90
        2
 70
     0
 43
0.0
 10
15100.4966087507
 20
-6949.846716784202
 42
-0.3152987888789835
 10
15101.35317307585
 20
-6954.70453446879
  0
LWPOLYLINE
  5
45D5862FBB1E4F
330
45D5862FB9AFAE
100
AcDbEntity
  8
URABARI
  6
HIDDEN
100
AcDbPolyline
 90
        2
 70
     0
 43
0.0
 10
15098.7923075916
 20
-6948.142415943306
 10
15100.4966085916
 20
-6949.846716943305
  0
LWPOLYLINE
  5
45D5862FBB1E50
330
45D5862FB9AFAE
100
AcDbEntity
  8
URABARI
  6
HIDDEN2
100
AcDbPolyline
 90
        2
 70
     0
 43
0.0
 10
15098.792308201
 20
-6948.142416333898
 42
-0.2914734195860875
 10
15098.6760152812
 20
-6947.617852871641
  0
LWPOLYLINE
  5
45D5862FBB1E51
330
45D5862FB9AFAE
100
AcDbEntity
  8
URABARI
  6
HIDDEN
100
AcDbPolyline
 90
        2
 70
     0
 43
0.0
 10
15103.7040545916
 20
-6933.803426943305
 10
15098.6760155916
 20
-6947.617851943305
  0
LWPOLYLINE
  5
45D5862FBB1E52
330
45D5862FB9AFAE
100
AcDbEntity
  8
URABARI
  6
HIDDEN
100
AcDbPolyline
 90
        2
 70
     0
 43
0.0
 10
15103.70405466042
 20
-6933.803426728316
 42
-0.3152987888789835
 10
15105.11359359159
 20
-6932.816456943306
  0
LWPOLYLINE
  5
45D5862FBB1E53
330
45D5862FB9AFAE
100
AcDbEntity
  8
URABARI
  6
HIDDEN
100
AcDbPolyline
 90
        2
 70
     0
 43
0.0
 10
15105.11359359159
 20
-6932.816456943306
 10
15127.0523905916
 20
-6932.816456943306
  0
LWPOLYLINE
  5
45D5862FBB1E54
330
45D5862FB9AFAE
100
AcDbEntity
  8
URABARI
  6
HIDDEN
100
AcDbPolyline
 90
        2
 70
     0
 43
0.0
 10
15127.0523905916
 20
-6932.816456943306
 42
-0.3152987888789835
 10
15128.46192952278
 20
-6933.803426728316
  0
LWPOLYLINE
  5
45D5862FBB1E55
330
45D5862FB9AFAE
100
AcDbEntity
  8
URABARI
  6
HIDDEN
100
AcDbPolyline
 90
        2
 70
     0
 43
0.0
 10
15128.4619285916
 20
-6933.803426943305
 10
15133.4811115916
 20
-6947.593517943305
  0
LWPOLYLINE
  5
45D5862FBB1E56
330
45D5862FB9AFAE
100
AcDbEntity
  8
URABARI
  6
HIDDEN2
100
AcDbPolyline
 90
        2
 70
     0
 43
0.0
 10
15133.48111190199
 20
-6947.593517871642
 42
-0.3639702342662023
 10
15133.2612655916
 20
-6948.197540645198
  0
LWPOLYLINE
  5
45D5862FBB1E57
330
45D5862FB9AFAE
100
AcDbEntity
  8
URABARI
  6
HIDDEN
100
AcDbPolyline
 90
        2
 70
     0
 43
0.0
 10
15133.2612655916
 20
-6948.197540943304
 10
15131.3865965916
 20
-6949.279881943306
  0
LWPOLYLINE
  5
45D5862FBB1E58
330
45D5862FB9AFAE
100
AcDbEntity
  8
URABARI
  6
HIDDEN
100
AcDbPolyline
 90
        2
 70
     0
 43
0.0
 10
15130.04578089438
 20
-6953.53240620705
 42
-0.3888787318529896
 10
15131.3865965916
 20
-6949.279882110817
  0
LWPOLYLINE
  5
45D5862FBB1E59
330
45D5862FB9AFAE
100
AcDbEntity
  8
URABARI
100
AcDbPolyline
 90
        2
 70
     0
 43
0.0
 10
15147.7882545916
 20
-6986.116456943306
 42
-0.2914734195860875
 10
15144.16302344345
 20
-6983.80692999027
1001
ACAD
1000
ASC_BOUNDS
1002
{
1070
    16
1002
}
  0
LWPOLYLINE
  5
45D5862FBB1E5A
330
45D5862FB9AFAE
100
AcDbEntity
  8
URABARI
  6
HIDDEN
100
AcDbPolyline
 90
        2
 70
     0
 43
0.0
 10
15144.1630235916
 20
-6983.806929943305
 10
15130.0457805916
 20
-6953.532405943305
  0
LWPOLYLINE
  5
45D5862FBB1E5B
330
45D5862FB9AFAE
100
AcDbEntity
  8
SETSUBAN
100
AcDbPolyline
 90
        2
 70
     0
 43
0.0
 10
15097.51951599487
 20
-6949.415208540035
 42
-0.2914734195860875
 10
15096.98456856379
 20
-6947.002216613658
  0
LWPOLYLINE
  5
45D5862FBB1E5C
330
45D5862FB9AFAE
100
AcDbEntity
  8
SETSUBAN
100
AcDbPolyline
 90
        2
 70
     0
 43
0.0
 10
15098.08520141982
 20
-6948.849523115083
 42
-0.2914734195860875
 10
15097.73632266042
 20
-6947.275832728315
  0
LWPOLYLINE
  5
45D5862FBB1E5D
330
45D5862FB9AFAE
100
AcDbEntity
  8
SETSUBAN
100
AcDbPolyline
 90
        2
 70
     0
 43
0.0
 10
15134.1612655916
 20
-6949.756386943305
 10
15132.2865965916
 20
-6950.838726943306
  0
LWPOLYLINE
  5
45D5862FBB1E5E
330
45D5862FB9AFAE
100
AcDbEntity
  8
SETSUBAN
100
AcDbPolyline
 90
        2
 70
     0
 43
0.0
 10
15133.7612655916
 20
-6949.063565943305
 10
15131.8865965916
 20
-6950.145906943305
  0
LWPOLYLINE
  5
45D5862FBB1E5F
330
45D5862FB9AFAE
100
AcDbEntity
  8
SETSUBAN
100
AcDbPolyline
 90
        2
 70
     0
 43
0.0
 10
15143.4550175916
 20
-6979.922405943305
 10
15130.9520885916
 20
-6953.109787943306
  0
LWPOLYLINE
  5
45D5862FBB1E60
330
45D5862FB9AFAE
100
AcDbEntity
  8
SETSUBAN
100
AcDbPolyline
 90
        2
 70
     0
 43
0.0
 10
15144.1800645916
 20
-6979.584311943305
 10
15131.6771345916
 20
-6952.771692943305
  0
LWPOLYLINE
  5
45D5862FBB1E61
330
45D5862FB9AFAE
100
AcDbEntity
  8
SETSUBAN
100
AcDbPolyline
 90
        2
 70
     0
 43
0.0
 10
15131.67713491104
 20
-6952.771693335917
 42
-0.3888787318529896
 10
15132.2865965916
 20
-6950.838727837629
  0
LWPOLYLINE
  5
45D5862FBB1E62
330
45D5862FB9AFAE
100
AcDbEntity
  8
SETSUBAN
100
AcDbPolyline
 90
        2
 70
     0
 43
0.0
 10
15130.95208868141
 20
-6953.10978794531
 42
-0.3888787318529896
 10
15131.8865965916
 20
-6950.145907514602
  0
LWPOLYLINE
  5
45D5862FBB1E63
330
45D5862FB9AFAE
100
AcDbEntity
  8
PIECE
100
AcDbPolyline
 90
        2
 70
     0
 43
0.0
 10
15106.78387153121
 20
-6936.036932177062
 42
-0.3664534687303901
 10
15109.05234259159
 20
-6934.116456943304
  0
LWPOLYLINE
  5
45D5862FBB1E64
330
45D5862FB9AFAE
100
AcDbEntity
  8
PIECE
100
AcDbPolyline
 90
        2
 70
     0
 43
0.0
 10
15104.51540047083
 20
-6935.657407410814
 42
-0.3664534687303901
 10
15109.05234259159
 20
-6931.816456943305
  0
LWPOLYLINE
  5
45D5862FBB1E65
330
45D5862FB9AFAE
100
AcDbEntity
  8
PIECE
100
AcDbPolyline
 90
        2
 70
     0
 43
0.0
 10
15099.8874845916
 20
-6948.052638943306
 10
15097.9479345916
 20
-6946.816456943306
  0
LWPOLYLINE
  5
45D5862FBB1E66
330
45D5862FB9AFAE
100
AcDbEntity
  8
PIECE
100
AcDbPolyline
 90
        2
 70
     0
 43
0.0
 10
15103.3507155916
 20
-6942.618884943304
 10
15099.8874845916
 20
-6948.052638943306
  0
LWPOLYLINE
  5
45D5862FBB1E67
330
45D5862FB9AFAE
100
AcDbEntity
  8
PIECE
100
AcDbPolyline
 90
        2
 70
     0
 43
0.0
 10
15104.3214865916
 20
-6936.816456943304
 10
15097.9479345916
 20
-6946.816456943306
  0
LWPOLYLINE
  5
45D5862FBB1E68
330
45D5862FB9AFAE
100
AcDbEntity
  8
SETSUBAN
100
AcDbPolyline
 90
        2
 70
     0
 43
0.0
 10
15135.1725586194
 20
-6946.977881613657
 42
-0.3639702342662023
 10
15134.1612655916
 20
-6949.756386372008
  0
LWPOLYLINE
  5
45D5862FBB1E69
330
45D5862FB9AFAE
100
AcDbEntity
  8
SETSUBAN
100
AcDbPolyline
 90
        2
 70
     0
 43
0.0
 10
15134.42080452277
 20
-6947.251497728316
 42
-0.3639702342662023
 10
15133.7612655916
 20
-6949.063566048983
  0
LWPOLYLINE
  5
45D5862FBB1E6A
330
45D5862FB9AFAE
100
AcDbEntity
  8
SETSUBAN
100
AcDbPolyline
 90
        2
 70
     0
 43
0.0
 10
15127.0523905916
 20
-6931.016456943305
 42
-0.3152987888789835
 10
15130.15337624019
 20
-6933.187790470331
  0
LWPOLYLINE
  5
45D5862FBB1E6B
330
45D5862FB9AFAE
100
AcDbEntity
  8
SETSUBAN
100
AcDbPolyline
 90
        2
 70
     0
 43
0.0
 10
15130.1533755916
 20
-6933.187789943303
 10
15135.1725585916
 20
-6946.977881943306
  0
LWPOLYLINE
  5
45D5862FBB1E6C
330
45D5862FB9AFAE
100
AcDbEntity
  8
SETSUBAN
100
AcDbPolyline
 90
        2
 70
     0
 43
0.0
 10
15129.4016215916
 20
-6933.461406943306
 10
15134.4208045916
 20
-6947.251497943305
  0
LWPOLYLINE
  5
45D5862FBB1E6D
330
45D5862FB9AFAE
100
AcDbEntity
  8
SETSUBAN
100
AcDbPolyline
 90
        2
 70
     0
 43
0.0
 10
15127.0523905916
 20
-6931.816456943305
 42
-0.3152987888789835
 10
15129.40162214356
 20
-6933.461406584992
  0
LWPOLYLINE
  5
45D5862FBB1E6E
330
45D5862FB9AFAE
100
AcDbEntity
  8
SETSUBAN
100
AcDbPolyline
 90
        2
 70
     0
 43
0.0
 10
15105.11359359159
 20
-6931.816456943305
 10
15127.0523905916
 20
-6931.816456943305
  0
LWPOLYLINE
  5
45D5862FBB1E6F
330
45D5862FB9AFAE
100
AcDbEntity
  8
SETSUBAN
100
AcDbPolyline
 90
        2
 70
     0
 43
0.0
 10
15105.11359359159
 20
-6931.016456943305
 10
15127.0523905916
 20
-6931.016456943305
  0
LWPOLYLINE
  5
45D5862FBB1E70
330
45D5862FB9AFAE
100
AcDbEntity
  8
PIECE
100
AcDbPolyline
 90
        2
 70
     0
 43
0.0
 10
15123.2305925916
 20
-6931.816456943305
 10
15109.05234259159
 20
-6931.816456943305
  0
LWPOLYLINE
  5
45D5862FBB1E71
330
45D5862FB9AFAE
100
AcDbEntity
  8
PIECE
100
AcDbPolyline
 90
        2
 70
     0
 43
0.0
 10
15123.2305925916
 20
-6934.116456943304
 10
15109.05234259159
 20
-6934.116456943304
  0
LWPOLYLINE
  5
45D5862FBB1E72
330
45D5862FB9AFAE
100
AcDbEntity
  8
SETSUBAN
100
AcDbPolyline
 90
        2
 70
     0
 43
0.0
 10
15102.012607943
 20
-6933.187790470331
 42
-0.3152987888789835
 10
15105.11359359159
 20
-6931.016456943305
  0
LWPOLYLINE
  5
45D5862FBB1E73
330
45D5862FB9AFAE
100
AcDbEntity
  8
SETSUBAN
100
AcDbPolyline
 90
        2
 70
     0
 43
0.0
 10
15102.7643625916
 20
-6933.461406943306
 10
15097.7363225916
 20
-6947.275831943305
  0
LWPOLYLINE
  5
45D5862FBB1E74
330
45D5862FB9AFAE
100
AcDbEntity
  8
SETSUBAN
100
AcDbPolyline
 90
        2
 70
     0
 43
0.0
 10
15102.0126085916
 20
-6933.187789943303
 10
15096.9845685916
 20
-6947.002215943306
  0
LWPOLYLINE
  5
45D5862FBB1E75
330
45D5862FB9AFAE
100
AcDbEntity
  8
SETSUBAN
100
AcDbPolyline
 90
        2
 70
     0
 43
0.0
 10
15102.76436203963
 20
-6933.461406584992
 42
-0.3152987888789835
 10
15105.11359359159
 20
-6931.816456943305
  0
LWPOLYLINE
  5
45D5862FBB1E76
330
45D5862FB9AFAE
100
AcDbEntity
  8
PIECE
100
AcDbPolyline
 90
        2
 70
     0
 43
0.0
 10
15123.2305925916
 20
-6931.816456943305
 42
-0.3666291875374781
 10
15127.76800416881
 20
-6935.660218767235
  0
LWPOLYLINE
  5
45D5862FBB1E77
330
45D5862FB9AFAE
100
AcDbEntity
  8
PIECE
100
AcDbPolyline
 90
        2
 70
     0
 43
0.0
 10
15123.2305925916
 20
-6934.116456943304
 42
-0.3666291875374781
 10
15125.4992983802
 20
-6936.038337855269
  0
LWPOLYLINE
  5
45D5862FBB1E78
330
45D5862FB9AFAE
100
AcDbEntity
  8
SETSUBAN
100
AcDbPolyline
 90
        2
 70
     0
 43
0.0
 10
15099.7218185916
 20
-6953.943820943305
 10
15098.8895155916
 20
-6955.728701943304
  0
LWPOLYLINE
  5
45D5862FBB1E79
330
45D5862FB9AFAE
100
AcDbEntity
  8
SETSUBAN
100
AcDbPolyline
 90
        2
 70
     0
 43
0.0
 10
15100.4468655916
 20
-6954.281915943305
 10
15099.6145615916
 20
-6956.066796943305
  0
LWPOLYLINE
  5
45D5862FBB1E7A
330
45D5862FB9AFAE
100
AcDbEntity
  8
SETSUBAN
100
AcDbPolyline
 90
        2
 70
     0
 43
0.0
 10
15097.5195155916
 20
-6949.415207943305
 10
15099.2238165916
 20
-6951.119508943304
  0
LWPOLYLINE
  5
45D5862FBB1E7B
330
45D5862FB9AFAE
100
AcDbEntity
  8
SETSUBAN
100
AcDbPolyline
 90
        2
 70
     0
 43
0.0
 10
15098.0852015916
 20
-6948.849522943305
 10
15099.7895015916
 20
-6950.553822943305
  0
LWPOLYLINE
  5
45D5862FBB1E7C
330
45D5862FB9AFAE
100
AcDbEntity
  8
SETSUBAN
100
AcDbPolyline
 90
        2
 70
     0
 43
0.0
 10
15098.8895155916
 20
-6955.728701943304
 10
15099.6145615916
 20
-6956.066796943305
  0
LWPOLYLINE
  5
45D5862FBB1E7D
330
45D5862FB9AFAE
100
AcDbEntity
  8
SETSUBAN
100
AcDbPolyline
 90
        2
 70
     0
 43
0.0
 10
15099.22381654456
 20
-6951.119508990338
 42
-0.3152987888789835
 10
15099.72181905919
 20
-6953.943821597658
  0
LWPOLYLINE
  5
45D5862FBB1E7E
330
45D5862FB9AFAE
100
AcDbEntity
  8
SETSUBAN
100
AcDbPolyline
 90
        2
 70
     0
 43
0.0
 10
15099.78950196951
 20
-6950.55382356539
 42
-0.3152987888789835
 10
15100.44686528882
 20
-6954.281916207048
  0
LWPOLYLINE
  5
45D5862FBB1E7F
330
45D5862FB9AFAE
100
AcDbEntity
  8
PIECE
100
AcDbPolyline
 90
        2
 70
     0
 43
0.0
 10
15132.3673265916
 20
-6948.052638943306
 10
15134.3068755916
 20
-6946.816456943306
  0
LWPOLYLINE
  5
45D5862FBB1E80
330
45D5862FB9AFAE
100
AcDbEntity
  8
PIECE
100
AcDbPolyline
 90
        2
 70
     0
 43
0.0
 10
15128.9040955916
 20
-6942.618884943304
 10
15132.3673265916
 20
-6948.052638943306
  0
LWPOLYLINE
  5
45D5862FBB1E81
330
45D5862FB9AFAE
100
AcDbEntity
  8
PIECE
100
AcDbPolyline
 90
        2
 70
     0
 43
0.0
 10
15127.9333245916
 20
-6936.816456943304
 10
15134.3068755916
 20
-6946.816456943306
  0
LWPOLYLINE
  5
45D5862FBB1E82
330
45D5862FB9AFAE
100
AcDbEntity
  8
PIECE
100
AcDbPolyline
 90
        2
 70
     0
 43
0.0
 10
15106.7838715916
 20
-6936.036931943306
 10
15099.4274055916
 20
-6980.007528943305
  0
LWPOLYLINE
  5
45D5862FBB1E83
330
45D5862FB9AFAE
100
AcDbEntity
  8
PIECE
100
AcDbPolyline
 90
        2
 70
     0
 43
0.0
 10
15104.5154005916
 20
-6935.657406943305
 10
15097.1274055916
 20
-6979.816456943305
  0
LWPOLYLINE
  5
45D5862FBB1E84
330
45D5862FB9AFAE
100
AcDbEntity
  8
PIECE
100
AcDbPolyline
 90
        2
 70
     0
 43
0.0
 10
15099.4274055916
 20
-6990.216456943305
 10
15099.4274055916
 20
-6980.007528943305
  0
LWPOLYLINE
  5
45D5862FBB1E85
330
45D5862FB9AFAE
100
AcDbEntity
  8
PIECE
100
AcDbPolyline
 90
        2
 70
     0
 43
0.0
 10
15097.1274055916
 20
-6990.216456943305
 10
15097.1274055916
 20
-6979.816456943305
  0
LWPOLYLINE
  5
45D5862FBB1E86
330
45D5862FB9AFAE
100
AcDbEntity
  8
PIECE
100
AcDbPolyline
 90
        2
 70
     0
 43
0.0
 10
15090.1274055916
 20
-6994.816456943304
 10
15090.1274055916
 20
-6992.516456943305
  0
LWPOLYLINE
  5
45D5862FBB1E87
330
45D5862FB9AFAE
100
AcDbEntity
  8
PIECE
100
AcDbPolyline
 90
        2
 70
     0
 43
0.0
 10
15099.4274055916
 20
-6990.216456943305
 42
-0.4142135623730951
 10
15094.8274055916
 20
-6994.816456943304
  0
LWPOLYLINE
  5
45D5862FBB1E88
330
45D5862FB9AFAE
100
AcDbEntity
  8
PIECE
100
AcDbPolyline
 90
        2
 70
     0
 43
0.0
 10
15097.1274055916
 20
-6990.216456943305
 42
-0.4142135623730951
 10
15094.8274055916
 20
-6992.516456943305
  0
LWPOLYLINE
  5
45D5862FBB1E89
330
45D5862FB9AFAE
100
AcDbEntity
  8
PIECE
100
AcDbPolyline
 90
        2
 70
     0
 43
0.0
 10
15132.8274055916
 20
-6980.006811943304
 10
15125.4992975916
 20
-6936.038337943306
  0
LWPOLYLINE
  5
45D5862FBB1E8A
330
45D5862FB9AFAE
100
AcDbEntity
  8
PIECE
100
AcDbPolyline
 90
        2
 70
     0
 43
0.0
 10
15135.1274055916
 20
-6979.816456943305
 10
15127.7680035916
 20
-6935.660218943304
  0
LWPOLYLINE
  5
45D5862FBB1E8B
330
45D5862FB9AFAE
100
AcDbEntity
  8
PIECE
100
AcDbPolyline
 90
        2
 70
     0
 43
0.0
 10
15132.8274055916
 20
-6990.216456943305
 10
15132.8274055916
 20
-6980.006811943304
  0
LWPOLYLINE
  5
45D5862FBB1E8C
330
45D5862FB9AFAE
100
AcDbEntity
  8
PIECE
100
AcDbPolyline
 90
        2
 70
     0
 43
0.0
 10
15135.1274055916
 20
-6990.216456943305
 10
15135.1274055916
 20
-6979.816456943305
  0
LWPOLYLINE
  5
45D5862FBB1E8D
330
45D5862FB9AFAE
100
AcDbEntity
  8
PIECE
100
AcDbPolyline
 90
        2
 70
     0
 43
0.0
 10
15148.12740559159
 20
-6994.816456943304
 10
15148.12740559159
 20
-6992.516456943305
  0
LWPOLYLINE
  5
45D5862FBB1E8E
330
45D5862FB9AFAE
100
AcDbEntity
  8
PIECE
100
AcDbPolyline
 90
        2
 70
     0
 43
0.0
 10
15142.1773285916
 20
-6994.816456943304
 10
15142.1773285916
 20
-6992.516456943305
  0
LWPOLYLINE
  5
45D5862FBB1E8F
330
45D5862FB9AFAE
100
AcDbEntity
  8
PIECE
100
AcDbPolyline
 90
        2
 70
     0
 43
0.0
 10
15137.4274055916
 20
-6994.816456943304
 42
-0.4142135623730951
 10
15132.8274055916
 20
-6990.216456943305
  0
LWPOLYLINE
  5
45D5862FBB1E90
330
45D5862FB9AFAE
100
AcDbEntity
  8
PIECE
100
AcDbPolyline
 90
        2
 70
     0
 43
0.0
 10
15137.4274055916
 20
-6992.516456943305
 42
-0.4142135623730951
 10
15135.1274055916
 20
-6990.216456943305
  0
LWPOLYLINE
  5
45D5862FBB1E91
330
45D5862FB9AFAE
100
AcDbEntity
  8
PIECE
100
AcDbPolyline
 90
        2
 70
     0
 43
0.0
 10
15137.4274055916
 20
-6992.516456943305
 10
15155.1274055916
 20
-6992.516456943305
  0
LWPOLYLINE
  5
45D5862FBB1E92
330
45D5862FB9AFAE
100
AcDbEntity
  8
PIECE
100
AcDbPolyline
 90
        2
 70
     0
 43
0.0
 10
15137.4274055916
 20
-6994.816456943304
 10
15155.1274055916
 20
-6994.816456943304
  0
LWPOLYLINE
  5
45D5862FBB1E93
330
45D5862FB9AFAE
100
AcDbEntity
  8
PIECE
100
AcDbPolyline
 90
        2
 70
     0
 43
0.0
 10
15155.1274055916
 20
-6994.816456943304
 10
15155.1274055916
 20
-6992.516456943305
  0
LWPOLYLINE
  5
45D5862FBB1E94
330
45D5862FB9AFAE
100
AcDbEntity
  8
SETSUBAN
100
AcDbPolyline
 90
        2
 70
     0
 43
0.0
 10
15104.3635935916
 20
-6929.816456943306
 10
15127.6077435916
 20
-6929.816456943306
  0
LWPOLYLINE
  5
45D5862FBB1E95
330
45D5862FB9AFAE
100
AcDbEntity
  8
SETSUBAN
100
AcDbPolyline
 90
        2
 70
     0
 43
0.0
 10
15104.3635935916
 20
-6929.016456943306
 10
15127.6077435916
 20
-6929.016456943306
  0
LWPOLYLINE
  5
45D5862FBB1E96
330
45D5862FB9AFAE
100
AcDbEntity
  8
SETSUBAN
100
AcDbPolyline
 90
        2
 70
     0
 43
0.0
 10
15130.6610015916
 20
-6931.064411943305
 10
15136.6280365916
 20
-6945.615728943306
  0
LWPOLYLINE
  5
45D5862FBB1E97
330
45D5862FB9AFAE
100
AcDbEntity
  8
SETSUBAN
100
AcDbPolyline
 90
        2
 70
     0
 43
0.0
 10
15129.9208175916
 20
-6931.367937943305
 10
15135.8878535916
 20
-6945.919254943305
  0
LWPOLYLINE
  5
45D5862FBB1E98
330
45D5862FB9AFAE
100
AcDbEntity
  8
SETSUBAN
100
AcDbPolyline
 90
        2
 70
     0
 43
0.0
 10
15135.4119765916
 20
-6948.563269943305
 10
15135.2679835916
 20
-6948.719296943306
  0
LWPOLYLINE
  5
45D5862FBB1E99
330
45D5862FB9AFAE
100
AcDbEntity
  8
SETSUBAN
100
AcDbPolyline
 90
        2
 70
     0
 43
0.0
 10
15135.9998795916
 20
-6949.105827943306
 10
15135.8558865916
 20
-6949.261854943306
  0
LWPOLYLINE
  5
45D5862FBB1E9A
330
45D5862FB9AFAE
100
AcDbEntity
  8
SETSUBAN
100
AcDbPolyline
 90
        2
 70
     0
 43
0.0
 10
15134.9041325916
 20
-6954.549883943305
 10
15135.1165325916
 20
-6955.067846943307
  0
LWPOLYLINE
  5
45D5862FBB1E9B
330
45D5862FB9AFAE
100
AcDbEntity
  8
SETSUBAN
100
AcDbPolyline
 90
        2
 70
     0
 43
0.0
 10
15134.1639485916
 20
-6954.853409943305
 10
15134.3763485916
 20
-6955.371372943305
  0
LWPOLYLINE
  5
45D5862FBB1E9C
330
45D5862FB9AFAE
100
AcDbEntity
  8
SETSUBAN
100
AcDbPolyline
 90
        2
 70
     0
 43
0.0
 10
15134.3763485916
 20
-6955.371372943305
 10
15135.1165325916
 20
-6955.067846943307
  0
LWPOLYLINE
  5
45D5862FBB1E9D
330
45D5862FB9AFAE
100
AcDbEntity
  8
SETSUBAN
100
AcDbPolyline
 90
        2
 70
     0
 43
0.0
 10
15102.0143625916
 20
-6931.461406943306
 10
15096.5687535916
 20
-6946.423092943305
  0
LWPOLYLINE
  5
45D5862FBB1E9E
330
45D5862FB9AFAE
100
AcDbEntity
  8
SETSUBAN
100
AcDbPolyline
 90
        2
 70
     0
 43
0.0
 10
15101.2626085916
 20
-6931.187789943305
 10
15095.81699959159
 20
-6946.149476943304
  0
LWPOLYLINE
  5
45D5862FBB1E9F
330
45D5862FB9AFAE
100
AcDbEntity
  8
SETSUBAN
100
AcDbPolyline
 90
        2
 70
     0
 43
0.0
 10
15097.1502185916
 20
-6949.045910943304
 10
15099.1457455916
 20
-6951.041437943306
  0
LWPOLYLINE
  5
45D5862FBB1EA0
330
45D5862FB9AFAE
100
AcDbEntity
  8
SETSUBAN
100
AcDbPolyline
 90
        2
 70
     0
 43
0.0
 10
15096.5845325916
 20
-6949.611595943306
 10
15098.5800605916
 20
-6951.607122943305
  0
LWPOLYLINE
  5
45D5862FBB1EA1
330
45D5862FB9AFAE
100
AcDbEntity
  8
SETSUBAN
100
AcDbPolyline
 90
        2
 70
     0
 43
0.0
 10
15134.90413216798
 20
-6954.549884307889
 42
-0.2914734195860877
 10
15135.85588605043
 20
-6949.261855236469
  0
LWPOLYLINE
  5
45D5862FBB1EA2
330
45D5862FB9AFAE
100
AcDbEntity
  8
SETSUBAN
100
AcDbPolyline
 90
        2
 70
     0
 43
0.0
 10
15135.88785280341
 20
-6945.919255261014
 42
-0.2914734195860877
 10
15135.41197586218
 20
-6948.563269796725
  0
LWPOLYLINE
  5
45D5862FBB1EA3
330
45D5862FB9AFAE
100
AcDbEntity
  8
SETSUBAN
100
AcDbPolyline
 90
        2
 70
     0
 43
0.0
 10
15134.1639484202
 20
-6954.853410286222
 42
-0.2914734195860877
 10
15135.26798292384
 20
-6948.719296563374
  0
LWPOLYLINE
  5
45D5862FBB1EA4
330
45D5862FB9AFAE
100
AcDbEntity
  8
SETSUBAN
100
AcDbPolyline
 90
        2
 70
     0
 43
0.0
 10
15136.62803655119
 20
-6945.61572928268
 42
-0.2914734195860877
 10
15135.99987898877
 20
-6949.10582846982
  0
LWPOLYLINE
  5
45D5862FBB1EA5
330
45D5862FB9AFAE
100
AcDbEntity
  8
SETSUBAN
100
AcDbPolyline
 90
        2
 70
     0
 43
0.0
 10
15127.6077435916
 20
-6929.816456943306
 42
-0.3043142763692328
 10
15129.92081780341
 20
-6931.367938261013
  0
LWPOLYLINE
  5
45D5862FBB1EA6
330
45D5862FB9AFAE
100
AcDbEntity
  8
SETSUBAN
100
AcDbPolyline
 90
        2
 70
     0
 43
0.0
 10
15127.6077435916
 20
-6929.016456943306
 42
-0.3043142763692328
 10
15130.66100155119
 20
-6931.064412282681
  0
LWPOLYLINE
  5
45D5862FBB1EA7
330
45D5862FB9AFAE
100
AcDbEntity
  8
SETSUBAN
100
AcDbPolyline
 90
        2
 70
     0
 43
0.0
 10
15102.01436203963
 20
-6931.461406584992
 42
-0.3152987888789835
 10
15104.3635935916
 20
-6929.816456943306
  0
LWPOLYLINE
  5
45D5862FBB1EA8
330
45D5862FB9AFAE
100
AcDbEntity
  8
SETSUBAN
100
AcDbPolyline
 90
        2
 70
     0
 43
0.0
 10
15101.262607943
 20
-6931.187790470331
 42
-0.3152987888789835
 10
15104.3635935916
 20
-6929.016456943306
  0
LWPOLYLINE
  5
45D5862FBB1EA9
330
45D5862FB9AFAE
100
AcDbEntity
  8
SETSUBAN
100
AcDbPolyline
 90
        2
 70
     0
 43
0.0
 10
15097.15021863863
 20
-6949.045910896273
 42
-0.2914734195860875
 10
15096.56875403963
 20
-6946.423093584993
  0
LWPOLYLINE
  5
45D5862FBB1EAA
330
45D5862FB9AFAE
100
AcDbEntity
  8
SETSUBAN
100
AcDbPolyline
 90
        2
 70
     0
 43
0.0
 10
15096.58453321368
 20
-6949.61159632122
 42
-0.2914734195860875
 10
15095.816999943
 20
-6946.149477470331
  0
LWPOLYLINE
  5
45D5862FBB1EAB
330
45D5862FB9AFAE
100
AcDbEntity
  8
SETSUBAN
100
AcDbPolyline
 90
        2
 70
     0
 43
0.0
 10
15098.58005976338
 20
-6951.607123771525
 42
-0.3152987888789835
 10
15098.87886127215
 20
-6953.301711335917
  0
LWPOLYLINE
  5
45D5862FBB1EAC
330
45D5862FB9AFAE
100
AcDbEntity
  8
SETSUBAN
100
AcDbPolyline
 90
        2
 70
     0
 43
0.0
 10
15099.14574518832
 20
-6951.041438346575
 42
-0.3152987888789835
 10
15099.60390750178
 20
-6953.639805945307
  0
LWPOLYLINE
  5
45D5862FBB1EAD
330
45D5862FB9AFAE
100
AcDbEntity
  8
SETSUBAN
100
AcDbPolyline
 90
        2
 70
     0
 43
0.0
 10
15146.8989875916
 20
-6981.316456943305
 42
-0.2914734195860875
 10
15144.18006423049
 20
-6979.584311728527
  0
LWPOLYLINE
  5
45D5862FBB1EAE
330
45D5862FB9AFAE
100
AcDbEntity
  8
SETSUBAN
100
AcDbPolyline
 90
        2
 70
     0
 43
0.0
 10
15146.8989875916
 20
-6982.116456943306
 42
-0.2914734195860875
 10
15143.45501800086
 20
-6979.922406337921
  0
LWPOLYLINE
  5
45D5862FBB1EAF
330
45D5862FB9AFAE
100
AcDbEntity
  8
SETSUBAN
100
AcDbPolyline
 90
        2
 70
     0
 43
0.0
 10
15086.62308395271
 20
-6979.584311728527
 42
-0.2914734195860876
 10
15083.90416059159
 20
-6981.316456943305
  0
LWPOLYLINE
  5
45D5862FBB1EB0
330
45D5862FB9AFAE
100
AcDbEntity
  8
SETSUBAN
100
AcDbPolyline
 90
        2
 70
     0
 43
0.0
 10
15087.34813018234
 20
-6979.922406337921
 42
-0.2914734195860876
 10
15083.90416059159
 20
-6982.116456943306
1001
ACAD
1000
ASC_BOUNDS
1002
{
1070
    16
1002
}
  0
LWPOLYLINE
  5
45D5862FBB1EB1
330
45D5862FB9AFAE
100
AcDbEntity
  8
PIECE
100
AcDbPolyline
 90
        2
 70
     0
 43
0.0
 10
15084.1773285916
 20
-6994.816456943304
 10
15084.1773285916
 20
-6992.516456943305
  0
LWPOLYLINE
  5
45D5862FBB1EB2
330
45D5862FB9AFAE
100
AcDbEntity
  8
PIECE
100
AcDbPolyline
 90
        2
 70
     0
 43
0.0
 10
15077.1274055916
 20
-6994.816456943304
 10
15077.1274055916
 20
-6992.516456943305
  0
LINE
  5
45D5862FBB1EB3
330
45D5862FB9AFAE
100
AcDbEntity
  8
TXT1
100
AcDbLine
 10
15605.1274055916
 20
-6994.816456943304
 30
0.0
 11
15493.78230724698
 21
-6994.816456943304
 31
0.0
  0
LINE
  5
45D5862FBB1EB4
330
45D5862FB9AFAE
100
AcDbEntity
  8
TXT1
100
AcDbLine
 10
15754.3167009647
 20
-6994.816456943304
 30
0.0
 11
15754.3167009647
 21
-7094.822507449904
 31
0.0
  0
DIMENSION
  5
45D5862FBB1EB5
330
45D5862FB9AFAE
100
AcDbEntity
  8
TXT1
100
AcDbDimension
  2
*D30
 10
15116.12740559159
 20
-6668.471637053198
 30
0.0
 11
15341.12740559159
 21
-6644.471637053197
 31
0.0
 70
    32
  1
４５０
 71
     5
 42
450.0000000000018
  3
STANDARD
100
AcDbAlignedDimension
 13
15566.1274055916
 23
-6751.170566355752
 33
0.0
 14
15116.12740559159
 24
-6751.170566355753
 34
0.0
100
AcDbRotatedDimension
1001
ACAD
1000
DSTYLE
1002
{
1070
   341
1005
45D5862FB9B039
1070
   343
1005
45D5862FB9B039
1070
   344
1005
45D5862FB9B039
1002
}
  0
LINE
  5
45D5862FBB1EB6
330
45D5862FB9AFAE
100
AcDbEntity
  8
TXT1
100
AcDbLine
 10
15116.12740559159
 20
-6668.471637053198
 30
0.0
 11
15041.73721847745
 21
-6668.471637053198
 31
0.0
  0
LINE
  5
45D5862FBB1EB7
330
45D5862FB9AFAE
100
AcDbEntity
  8
TXT1
100
AcDbLine
 10
15084.1572715916
 20
-6986.116456943306
 30
0.0
 11
15058.18635022489
 21
-6986.116456943306
 31
0.0
  0
LINE
  5
45D5862FBB1EB8
330
45D5862FB9AFAE
100
AcDbEntity
  8
TXT1
100
AcDbLine
 10
15059.6926745916
 20
-6986.116456943306
 30
0.0
 11
15058.18635022489
 21
-6984.610132576603
 31
0.0
  0
LINE
  5
45D5862FBB1EB9
330
45D5862FB9AFAE
100
AcDbEntity
  8
TXT1
100
AcDbLine
 10
15064.1828025916
 20
-6986.116456943306
 30
0.0
 11
15060.1828025916
 21
-6982.116456943306
 31
0.0
  0
LINE
  5
45D5862FBB1EBA
330
45D5862FB9AFAE
100
AcDbEntity
  8
TXT1
100
AcDbLine
 10
15068.67293059159
 20
-6986.116456943306
 30
0.0
 11
15064.6729305916
 21
-6982.116456943306
 31
0.0
  0
LINE
  5
45D5862FBB1EBB
330
45D5862FB9AFAE
100
AcDbEntity
  8
TXT1
100
AcDbLine
 10
15073.1630585916
 20
-6986.116456943306
 30
0.0
 11
15069.1630585916
 21
-6982.116456943306
 31
0.0
  0
LINE
  5
45D5862FBB1EBC
330
45D5862FB9AFAE
100
AcDbEntity
  8
TXT1
100
AcDbLine
 10
15077.65318659159
 20
-6986.116456943306
 30
0.0
 11
15073.6531865916
 21
-6982.116456943306
 31
0.0
  0
LINE
  5
45D5862FBB1EBD
330
45D5862FB9AFAE
100
AcDbEntity
  8
TXT1
100
AcDbLine
 10
15082.1433145916
 20
-6986.116456943306
 30
0.0
 11
15078.1433145916
 21
-6982.116456943306
 31
0.0
  0
LINE
  5
45D5862FBB1EBE
330
45D5862FB9AFAE
100
AcDbEntity
  8
TXT1
100
AcDbLine
 10
15086.11923049076
 20
-6985.602244842472
 30
0.0
 11
15082.6334425916
 21
-6982.116456943306
 31
0.0
  0
LINE
  5
45D5862FBB1EBF
330
45D5862FB9AFAE
100
AcDbEntity
  8
TXT1
100
AcDbLine
 10
15087.6526325916
 20
-6982.645517943307
 30
0.0
 11
15086.2851445916
 21
-6981.278029943306
 31
0.0
  0
DIMENSION
  5
45D5862FBB1FB6
330
45D5862FB9AFAE
100
AcDbEntity
  8
TXT1
100
AcDbDimension
  2
*D31
 10
14748.76024986223
 20
-6826.403434609403
 30
0.0
 11
14724.76024986223
 21
-6856.403507250471
 31
0.0
 70
    32
 71
     5
 42
60.00014528214069
  3
STANDARD
100
AcDbAlignedDimension
 13
14767.04066719983
 23
-6886.403579891545
 33
0.0
 14
14767.04066719983
 24
-6826.403434609403
 34
0.0
 50
90.0
100
AcDbRotatedDimension
1001
ACAD
1000
DSTYLE
1002
{
1070
   341
1005
45D5862FB9B039
1070
   343
1005
45D5862FB9B039
1070
   344
1005
45D5862FB9B039
1002
}
  0
DIMENSION
  5
45D5862FBB1FC3
330
45D5862FB9AFAE
100
AcDbEntity
  8
TXT1
100
AcDbDimension
  2
*D32
 10
14801.88379800058
 20
-6777.14173456532
 30
0.0
 11
14794.38379800058
 21
-6752.64173456532
 31
0.0
 70
    32
 71
     5
 42
15.0
  3
STANDARD
100
AcDbAlignedDimension
 13
14786.88379800058
 23
-6806.40705369304
 33
0.0
 14
14801.88379800058
 24
-6806.403434609404
 34
0.0
100
AcDbRotatedDimension
1001
ACAD
1000
DSTYLE
1002
{
1070
   341
1005
45D5862FB9B039
1070
   343
1005
45D5862FB9B039
1070
   344
1005
45D5862FB9B039
1002
}
  0
DIMENSION
  5
45D5862FBB1FD4
330
45D5862FB9AFAE
100
AcDbEntity
  8
TXT1
100
AcDbDimension
  2
*D33
 10
15716.16352885682
 20
-6928.230909630015
 30
0.0
 11
15692.16352885682
 21
-6853.223683286657
 31
0.0
 70
    32
 71
     5
 42
150.0144526867098
  3
STANDARD
100
AcDbAlignedDimension
 13
15773.5167009647
 23
-6778.216456943304
 33
0.0
 14
15773.5167009647
 24
-6928.230909630015
 34
0.0
 50
90.0
100
AcDbRotatedDimension
1001
ACAD
1000
DSTYLE
1002
{
1070
   341
1005
45D5862FB9B039
1070
   343
1005
45D5862FB9B039
1070
   344
1005
45D5862FB9B039
1002
}
  0
LWPOLYLINE
  5
45D5862FBB1FED
330
45D5862FB9AFAE
100
AcDbEntity
  8
TXT1
100
AcDbPolyline
 90
        4
 70
     1
 43
0.0
 10
14293.86626072945
 20
-7411.285757523572
 10
14785.89713839452
 20
-7411.285757523572
 10
14785.89713839452
 20
-7480.558738504877
 10
14293.86626072945
 20
-7480.558738504877
  0
LWPOLYLINE
  5
45D5862FBB1FEE
330
45D5862FB9AFAE
100
AcDbEntity
  8
TXT1
100
AcDbPolyline
 90
        4
 70
     1
 43
0.0
 10
15326.36255628223
 20
-7411.85294617906
 10
15840.29059446941
 20
-7411.85294617906
 10
15840.29059446941
 20
-7479.578870091924
 10
15326.36255628223
 20
-7479.578870091924
  0
INSERT
  5
45D5862FBB1FFA
330
45D5862FB9AFAE
100
AcDbEntity
  8
TXT1
100
AcDbBlockReference
  2
DOT
 10
15446.64977148664
 20
-6977.0710769179
 30
0.0
 41
-5.0
 42
5.0
 43
5.0
 50
314.9999999999999
  0
ENDSEC
  0
SECTION
  2
OBJECTS
  0
DICTIONARY
  5
45D5862FB9AFA2
330
0
100
AcDbDictionary
281
     1
  3
ACAD_COLOR
350
45D5862FBB15F4
  3
ACAD_GROUP
350
45D5862FB9AFA3
  3
ACAD_LAYOUT
350
45D5862FBAC360
  3
ACAD_MATERIAL
350
45D5862FBB15F3
  3
ACAD_MLINESTYLE
350
45D5862FB9AFA4
  3
ACAD_PLOTSETTINGS
350
45D5862FBAC361
  3
ACAD_PLOTSTYLENAME
350
45D5862FBAC35E
  3
ACAD_TABLESTYLE
350
45D5862FBB15F5
  3
ACDBHEADERROUNDTRIPXREC
350
45D5862FBB201B
  3
AcDbVariableDictionary
350
45D5862FBAD929
  0
DICTIONARY
  5
45D5862FBAC3C5
330
45D5862FB9AFAE
100
AcDbDictionary
280
     1
281
     1
  3
ACAD_LAYOUTSELFREF
360
45D5862FBAC82F
  3
ACAD_SORTENTS
360
45D5862FBB1D48
  0
DICTIONARY
  5
45D5862FBAC3C3
330
45D5862FB9AFAB
100
AcDbDictionary
280
     1
281
     1
  3
ACAD_LAYOUTSELFREF
360
45D5862FBAC82E
  0
DICTIONARY
  5
45D5862FBB15F4
102
{ACAD_REACTORS
330
45D5862FB9AFA2
102
}
330
45D5862FB9AFA2
100
AcDbDictionary
281
     1
  0
DICTIONARY
  5
45D5862FB9AFA3
102
{ACAD_REACTORS
330
45D5862FB9AFA2
102
}
330
45D5862FB9AFA2
100
AcDbDictionary
281
     1
  3
*A1
350
45D5862FBAF382
  3
*A2
350
45D5862FBAF385
  3
*A3
350
45D5862FBAF388
  3
*A4
350
45D5862FBAFB2F
  3
*A5
350
45D5862FBAFEB0
  3
*A6
350
45D5862FBAFEB7
  3
*A7
350
45D5862FBB07A0
  0
DICTIONARY
  5
45D5862FBAC360
102
{ACAD_REACTORS
330
45D5862FB9AFA2
102
}
330
45D5862FB9AFA2
100
AcDbDictionary
281
     1
  3
Model
350
45D5862FBAC362
  3
ﾚｲｱｳﾄ1
350
45D5862FBAC363
  0
DICTIONARY
  5
45D5862FBB15F3
102
{ACAD_REACTORS
330
45D5862FB9AFA2
102
}
330
45D5862FB9AFA2
100
AcDbDictionary
281
     1
  0
DICTIONARY
  5
45D5862FB9AFA4
102
{ACAD_REACTORS
330
45D5862FB9AFA2
102
}
330
45D5862FB9AFA2
100
AcDbDictionary
281
     1
  3
STANDARD
350
45D5862FB9AFB1
  0
DICTIONARY
  5
45D5862FBAC361
102
{ACAD_REACTORS
330
45D5862FB9AFA2
102
}
330
45D5862FB9AFA2
100
AcDbDictionary
281
     1
  0
ACDBDICTIONARYWDFLT
  5
45D5862FBAC35E
102
{ACAD_REACTORS
330
45D5862FB9AFA2
102
}
330
45D5862FB9AFA2
100
AcDbDictionary
281
     1
  3
Normal
350
45D5862FBAC35F
100
AcDbDictionaryWithDefault
340
45D5862FBAC35F
1001
ACAD
1000
TREAT_AS_HARD
1070
     0
  0
DICTIONARY
  5
45D5862FBB15F5
102
{ACAD_REACTORS
330
45D5862FB9AFA2
102
}
330
45D5862FB9AFA2
100
AcDbDictionary
281
     1
  3
Standard
350
45D5862FBB15F6
  0
DICTIONARY
  5
45D5862FBB201B
102
{ACAD_REACTORS
330
45D5862FB9AFA2
102
}
330
45D5862FB9AFA2
100
AcDbDictionary
281
     1
  0
DICTIONARY
  5
45D5862FBAD929
102
{ACAD_REACTORS
330
45D5862FB9AFA2
102
}
330
45D5862FB9AFA2
100
AcDbDictionary
281
     1
  3
CTABLESTYLE
350
45D5862FBB15F8
  3
DIMASSOC
350
45D5862FBAD92A
  3
PROJECTNAME
350
45D5862FBB15F9
  0
XRECORD
  5
45D5862FBAC82F
102
{ACAD_REACTORS
330
45D5862FBAC3C5
102
}
330
45D5862FBAC3C5
100
AcDbXrecord
280
     1
340
45D5862FB9AFAE
  0
SORTENTSTABLE
  5
45D5862FBB1D48
102
{ACAD_REACTORS
330
45D5862FBAC3C5
102
}
330
45D5862FBAC3C5
100
AcDbSortentsTable
330
45D5862FB9AFAE
331
45D5862FBA2621
  5
45D5862FBA2621
331
45D5862FBB035B
  5
45D5862FBB035B
331
45D5862FBB014F
  5
45D5862FBB014F
331
45D5862FBA2629
  5
45D5862FBA2629
331
45D5862FBB0363
  5
45D5862FBB0363
331
45D5862FBB031C
  5
45D5862FBB031C
331
45D5862FBA8D55
  5
45D5862FBA8D55
331
45D5862FBA3941
  5
45D5862FBA3941
331
45D5862FBB036B
  5
45D5862FBB036B
331
45D5862FBB0324
  5
45D5862FBB0324
331
45D5862FBA8D5D
  5
45D5862FBA8D5D
331
45D5862FBB1C6A
  5
45D5862FBB1C6A
331
45D5862FBB1CA9
  5
45D5862FBB1CA9
331
45D5862FBB1C72
  5
45D5862FBB1C72
331
45D5862FBB1C7A
  5
45D5862FBB1C7A
331
45D5862FBB061F
  5
45D5862FBB061F
331
45D5862FBB1C82
  5
45D5862FBB1C82
331
45D5862FBAB722
  5
45D5862FBAB722
331
45D5862FBB0334
  5
45D5862FBB0334
331
45D5862FBB0090
  5
45D5862FBB0090
331
45D5862FBAB72A
  5
45D5862FBAB72A
331
45D5862FBA8D65
  5
45D5862FBA8D65
331
45D5862FBA394F
  5
45D5862FBA394F
331
45D5862FBB033C
  5
45D5862FBB033C
331
45D5862FBB0128
  5
45D5862FBB0128
331
45D5862FBAB732
  5
45D5862FBAB732
331
45D5862FBB01ED
  5
45D5862FBB01ED
331
45D5862FBA8D6D
  5
45D5862FBA8D6D
331
45D5862FBA3957
  5
45D5862FBA3957
331
45D5862FBA2612
  5
45D5862FBA2612
331
45D5862FBB0344
  5
45D5862FBB0344
331
45D5862FBB0140
  5
45D5862FBB0140
331
45D5862FBB01F5
  5
45D5862FBB01F5
331
45D5862FBA261A
  5
45D5862FBA261A
331
45D5862FBB0354
  5
45D5862FBB0354
331
45D5862FBB0371
  5
45D5862FBB0371
331
45D5862FBB1C8A
  5
45D5862FBB1C8A
331
45D5862FBB1C53
  5
45D5862FBB1C53
331
45D5862FBB05E8
  5
45D5862FBB05E8
331
45D5862FBB1C92
  5
45D5862FBB1C92
331
45D5862FBB1C9A
  5
45D5862FBB1C9A
331
45D5862FBB1C5B
  5
45D5862FBB1C5B
331
45D5862FBB05F0
  5
45D5862FBB05F0
331
45D5862FBB0389
  5
45D5862FBB0389
331
45D5862FBB1C63
  5
45D5862FBB1C63
331
45D5862FBB1CA2
  5
45D5862FBB1CA2
331
45D5862FBB0148
  5
45D5862FBB0148
331
45D5862FBA2622
  5
45D5862FBA2622
331
45D5862FBB0315
  5
45D5862FBB0315
331
45D5862FBB0150
  5
45D5862FBB0150
331
45D5862FBAFEB1
  5
45D5862FBAFEB1
331
45D5862FBA262A
  5
45D5862FBA262A
331
45D5862FBB0364
  5
45D5862FBB0364
331
45D5862FBB031D
  5
45D5862FBB031D
331
45D5862FBA8D56
  5
45D5862FBA8D56
331
45D5862FBA3942
  5
45D5862FBA3942
331
45D5862FBB036C
  5
45D5862FBB036C
331
45D5862FBB0079
  5
45D5862FBB0079
331
45D5862FBAB71B
  5
45D5862FBAB71B
331
45D5862FBB0325
  5
45D5862FBB0325
331
45D5862FBA8D5E
  5
45D5862FBA8D5E
331
45D5862FBB1C6B
  5
45D5862FBB1C6B
331
45D5862FBB1C73
  5
45D5862FBB1C73
331
45D5862FBB0618
  5
45D5862FBB0618
331
45D5862FBB0561
  5
45D5862FBB0561
331
45D5862FBB1C7B
  5
45D5862FBB1C7B
331
45D5862FBB15E7
  5
45D5862FBB15E7
331
45D5862FBB1C83
  5
45D5862FBB1C83
331
45D5862FBAB723
  5
45D5862FBAB723
331
45D5862FBA3948
  5
45D5862FBA3948
331
45D5862FBB0335
  5
45D5862FBB0335
331
45D5862FBB0091
  5
45D5862FBB0091
331
45D5862FBAB72B
  5
45D5862FBAB72B
331
45D5862FBA8D66
  5
45D5862FBA8D66
331
45D5862FBA3950
  5
45D5862FBA3950
331
45D5862FBB033D
  5
45D5862FBB033D
331
45D5862FBB0129
  5
45D5862FBB0129
331
45D5862FBAB733
  5
45D5862FBAB733
331
45D5862FBB01EE
  5
45D5862FBB01EE
331
45D5862FBA8D6E
  5
45D5862FBA8D6E
331
45D5862FBA3958
  5
45D5862FBA3958
331
45D5862FBA2613
  5
45D5862FBA2613
331
45D5862FBB0141
  5
45D5862FBB0141
331
45D5862FBB01F6
  5
45D5862FBB01F6
331
45D5862FBA261B
  5
45D5862FBA261B
331
45D5862FBB0355
  5
45D5862FBB0355
331
45D5862FBB0372
  5
45D5862FBB0372
331
45D5862FBB1C8B
  5
45D5862FBB1C8B
331
45D5862FBB1C54
  5
45D5862FBB1C54
331
45D5862FBB05E9
  5
45D5862FBB05E9
331
45D5862FBB1C93
  5
45D5862FBB1C93
331
45D5862FBB1C9B
  5
45D5862FBB1C9B
331
45D5862FBB1C5C
  5
45D5862FBB1C5C
331
45D5862FBB160F
  5
45D5862FBB160F
331
45D5862FBB1C64
  5
45D5862FBB1C64
331
45D5862FBB1CA3
  5
45D5862FBB1CA3
331
45D5862FBB0149
  5
45D5862FBB0149
331
45D5862FBB035D
  5
45D5862FBB035D
331
45D5862FBAFEB2
  5
45D5862FBAFEB2
331
45D5862FBA2623
  5
45D5862FBA2623
331
45D5862FBB031E
  5
45D5862FBB031E
331
45D5862FBB01D1
  5
45D5862FBB01D1
331
45D5862FBA262B
  5
45D5862FBA262B
331
45D5862FBA8D57
  5
45D5862FBA8D57
331
45D5862FBB007A
  5
45D5862FBB007A
331
45D5862FBAB71C
  5
45D5862FBAB71C
331
45D5862FBB036D
  5
45D5862FBB036D
331
45D5862FBA3943
  5
45D5862FBA3943
331
45D5862FBB032E
  5
45D5862FBB032E
331
45D5862FBA8D5F
  5
45D5862FBA8D5F
331
45D5862FBB04AA
  5
45D5862FBB04AA
331
45D5862FBB1C6C
  5
45D5862FBB1C6C
331
45D5862FBB0611
  5
45D5862FBB0611
331
45D5862FBB1C74
  5
45D5862FBB1C74
331
45D5862FBB0619
  5
45D5862FBB0619
331
45D5862FBB0562
  5
45D5862FBB0562
331
45D5862FBB1C7C
  5
45D5862FBB1C7C
331
45D5862FBB1C84
  5
45D5862FBB1C84
331
45D5862FBB008A
  5
45D5862FBB008A
331
45D5862FBAB724
  5
45D5862FBAB724
331
45D5862FBB0336
  5
45D5862FBB0336
331
45D5862FBB0092
  5
45D5862FBB0092
331
45D5862FBAB72C
  5
45D5862FBAB72C
331
45D5862FBA3949
  5
45D5862FBA3949
331
45D5862FBA8D67
  5
45D5862FBA8D67
331
45D5862FBB033E
  5
45D5862FBB033E
331
45D5862FBB012A
  5
45D5862FBB012A
331
45D5862FBAB734
  5
45D5862FBAB734
331
45D5862FBB01EF
  5
45D5862FBB01EF
331
45D5862FBA3951
  5
45D5862FBA3951
331
45D5862FBA8D6F
  5
45D5862FBA8D6F
331
45D5862FBA3959
  5
45D5862FBA3959
331
45D5862FBB0346
  5
45D5862FBB0346
331
45D5862FBB0142
  5
45D5862FBB0142
331
45D5862FBB01F7
  5
45D5862FBB01F7
331
45D5862FBA2614
  5
45D5862FBA2614
331
45D5862FBB0356
  5
45D5862FBB0356
331
45D5862FBA261C
  5
45D5862FBA261C
331
45D5862FBB05CA
  5
45D5862FBB05CA
331
45D5862FBB0373
  5
45D5862FBB0373
331
45D5862FBB1C8C
  5
45D5862FBB1C8C
331
45D5862FBB1C55
  5
45D5862FBB1C55
331
45D5862FBB05EA
  5
45D5862FBB05EA
331
45D5862FBB1C94
  5
45D5862FBB1C94
331
45D5862FBB1C9C
  5
45D5862FBB1C9C
331
45D5862FBB1C5D
  5
45D5862FBB1C5D
331
45D5862FBB038B
  5
45D5862FBB038B
331
45D5862FBB1C65
  5
45D5862FBB1C65
331
45D5862FBB1CA4
  5
45D5862FBB1CA4
331
45D5862FBB014A
  5
45D5862FBB014A
331
45D5862FBB035E
  5
45D5862FBB035E
331
45D5862FBAFEB3
  5
45D5862FBAFEB3
331
45D5862FBA2624
  5
45D5862FBA2624
331
45D5862FBA262C
  5
45D5862FBA262C
331
45D5862FBA8D58
  5
45D5862FBA8D58
331
45D5862FBAB71D
  5
45D5862FBAB71D
331
45D5862FBB036E
  5
45D5862FBB036E
331
45D5862FBA3944
  5
45D5862FBA3944
331
45D5862FBB032F
  5
45D5862FBB032F
331
45D5862FBB1C6D
  5
45D5862FBB1C6D
331
45D5862FBB0612
  5
45D5862FBB0612
331
45D5862FBB04B3
  5
45D5862FBB04B3
331
45D5862FBB1CAC
  5
45D5862FBB1CAC
331
45D5862FBB1C75
  5
45D5862FBB1C75
331
45D5862FBB061A
  5
45D5862FBB061A
331
45D5862FBB0563
  5
45D5862FBB0563
331
45D5862FBB1C7D
  5
45D5862FBB1C7D
331
45D5862FBB1C85
  5
45D5862FBB1C85
331
45D5862FBAB725
  5
45D5862FBAB725
331
45D5862FBB008B
  5
45D5862FBB008B
331
45D5862FBA8D60
  5
45D5862FBA8D60
331
45D5862FBB0337
  5
45D5862FBB0337
331
45D5862FBB0093
  5
45D5862FBB0093
331
45D5862FBAB72D
  5
45D5862FBAB72D
331
45D5862FBA394A
  5
45D5862FBA394A
331
45D5862FBB033F
  5
45D5862FBB033F
331
45D5862FBB012B
  5
45D5862FBB012B
331
45D5862FBAB735
  5
45D5862FBAB735
331
45D5862FBB01F0
  5
45D5862FBB01F0
331
45D5862FBA3952
  5
45D5862FBA3952
331
45D5862FBA8D68
  5
45D5862FBA8D68
331
45D5862FBA8D70
  5
45D5862FBA8D70
331
45D5862FBA395A
  5
45D5862FBA395A
331
45D5862FBB0143
  5
45D5862FBB0143
331
45D5862FBB0347
  5
45D5862FBB0347
331
45D5862FBA2615
  5
45D5862FBA2615
331
45D5862FBB0357
  5
45D5862FBB0357
331
45D5862FBA261D
  5
45D5862FBA261D
331
45D5862FBB05CB
  5
45D5862FBB05CB
331
45D5862FBB0374
  5
45D5862FBB0374
331
45D5862FBB1C8D
  5
45D5862FBB1C8D
331
45D5862FBB05EB
  5
45D5862FBB05EB
331
45D5862FBB1C95
  5
45D5862FBB1C95
331
45D5862FBB1C9D
  5
45D5862FBB1C9D
331
45D5862FBB1C5E
  5
45D5862FBB1C5E
331
45D5862FBB1CA5
  5
45D5862FBB1CA5
331
45D5862FBB1C66
  5
45D5862FBB1C66
331
45D5862FBB014B
  5
45D5862FBB014B
331
45D5862FBB035F
  5
45D5862FBB035F
331
45D5862FBAFEB4
  5
45D5862FBAFEB4
331
45D5862FBA2625
  5
45D5862FBA2625
331
45D5862FBB0367
  5
45D5862FBB0367
331
45D5862FBB0320
  5
45D5862FBB0320
331
45D5862FBA262D
  5
45D5862FBA262D
331
45D5862FBA8D59
  5
45D5862FBA8D59
331
45D5862FBB036F
  5
45D5862FBB036F
331
45D5862FBAB71E
  5
45D5862FBAB71E
331
45D5862FBA3945
  5
45D5862FBA3945
331
45D5862FBB1C6E
  5
45D5862FBB1C6E
331
45D5862FBB0613
  5
45D5862FBB0613
331
45D5862FBB1629
  5
45D5862FBB1629
331
45D5862FBB061B
  5
45D5862FBB061B
331
45D5862FBB0564
  5
45D5862FBB0564
331
45D5862FBB1C76
  5
45D5862FBB1C76
331
45D5862FBB1C7E
  5
45D5862FBB1C7E
331
45D5862FBB05BC
  5
45D5862FBB05BC
331
45D5862FBB1C86
  5
45D5862FBB1C86
331
45D5862FBAB726
  5
45D5862FBAB726
331
45D5862FBB0330
  5
45D5862FBB0330
331
45D5862FBA8D61
  5
45D5862FBA8D61
331
45D5862FBB0338
  5
45D5862FBB0338
331
45D5862FBB0094
  5
45D5862FBB0094
331
45D5862FBAB72E
  5
45D5862FBAB72E
331
45D5862FBA394B
  5
45D5862FBA394B
331
45D5862FBB0340
  5
45D5862FBB0340
331
45D5862FBAB736
  5
45D5862FBAB736
331
45D5862FBB01F1
  5
45D5862FBB01F1
331
45D5862FBA3953
  5
45D5862FBA3953
331
45D5862FBA8D69
  5
45D5862FBA8D69
331
45D5862FBA8D71
  5
45D5862FBA8D71
331
45D5862FBA395B
  5
45D5862FBA395B
331
45D5862FBA2616
  5
45D5862FBA2616
331
45D5862FB9AD75
  5
45D5862FB9AD75
331
45D5862FBA261E
  5
45D5862FBA261E
331
45D5862FBB0623
  5
45D5862FBB0623
331
45D5862FBB0375
  5
45D5862FBB0375
331
45D5862FBB1C8E
  5
45D5862FBB1C8E
331
45D5862FBB05E4
  5
45D5862FBB05E4
331
45D5862FBB1C57
  5
45D5862FBB1C57
331
45D5862FBB05EC
  5
45D5862FBB05EC
331
45D5862FBB1C96
  5
45D5862FBB1C96
331
45D5862FBB1C9E
  5
45D5862FBB1C9E
331
45D5862FBB1C5F
  5
45D5862FBB1C5F
331
45D5862FBB1CA6
  5
45D5862FBB1CA6
331
45D5862FBB1C67
  5
45D5862FBB1C67
331
45D5862FBB0358
  5
45D5862FBB0358
331
45D5862FBB014C
  5
45D5862FBB014C
331
45D5862FBB0360
  5
45D5862FBB0360
331
45D5862FBB0319
  5
45D5862FBB0319
331
45D5862FBA2626
  5
45D5862FBA2626
331
45D5862FBB0321
  5
45D5862FBB0321
331
45D5862FBA262E
  5
45D5862FBA262E
331
45D5862FBA8D5A
  5
45D5862FBA8D5A
331
45D5862FBAB71F
  5
45D5862FBAB71F
331
45D5862FBA3946
  5
45D5862FBA3946
331
45D5862FBB0604
  5
45D5862FBB0604
331
45D5862FBB1C6F
  5
45D5862FBB1C6F
331
45D5862FBB0614
  5
45D5862FBB0614
331
45D5862FBB1C77
  5
45D5862FBB1C77
331
45D5862FBB0565
  5
45D5862FBB0565
331
45D5862FBB1C7F
  5
45D5862FBB1C7F
331
45D5862FBB05BD
  5
45D5862FBB05BD
331
45D5862FBB1C87
  5
45D5862FBB1C87
331
45D5862FBB0331
  5
45D5862FBB0331
331
45D5862FBAB727
  5
45D5862FBAB727
331
45D5862FBA8D62
  5
45D5862FBA8D62
331
45D5862FBB0339
  5
45D5862FBB0339
331
45D5862FBB0095
  5
45D5862FBB0095
331
45D5862FBAB72F
  5
45D5862FBAB72F
331
45D5862FBA394C
  5
45D5862FBA394C
331
45D5862FBA8D6A
  5
45D5862FBA8D6A
331
45D5862FBB0341
  5
45D5862FBB0341
331
45D5862FBAB737
  5
45D5862FBAB737
331
45D5862FBB01F2
  5
45D5862FBB01F2
331
45D5862FBA3954
  5
45D5862FBA3954
331
45D5862FB9AC56
  5
45D5862FB9AC56
331
45D5862FBA8D72
  5
45D5862FBA8D72
331
45D5862FBA395C
  5
45D5862FBA395C
331
45D5862FBA2617
  5
45D5862FBA2617
331
45D5862FBA261F
  5
45D5862FBA261F
331
45D5862FBB0624
  5
45D5862FBB0624
331
45D5862FBB1C8F
  5
45D5862FBB1C8F
331
45D5862FBB1C97
  5
45D5862FBB1C97
331
45D5862FBB1C58
  5
45D5862FBB1C58
331
45D5862FBB05ED
  5
45D5862FBB05ED
331
45D5862FBB0386
  5
45D5862FBB0386
331
45D5862FBB1C9F
  5
45D5862FBB1C9F
331
45D5862FBB1C60
  5
45D5862FBB1C60
331
45D5862FBB1CA7
  5
45D5862FBB1CA7
331
45D5862FBB0359
  5
45D5862FBB0359
331
45D5862FBA2627
  5
45D5862FBA2627
331
45D5862FBB0361
  5
45D5862FBB0361
331
45D5862FBB031A
  5
45D5862FBB031A
331
45D5862FBB0155
  5
45D5862FBB0155
331
45D5862FBB0322
  5
45D5862FBB0322
331
45D5862FBB0076
  5
45D5862FBB0076
331
45D5862FBA8D5B
  5
45D5862FBA8D5B
331
45D5862FBA3947
  5
45D5862FBA3947
331
45D5862FBB1C68
  5
45D5862FBB1C68
331
45D5862FBB1C70
  5
45D5862FBB1C70
331
45D5862FBB1C78
  5
45D5862FBB1C78
331
45D5862FBB1C80
  5
45D5862FBB1C80
331
45D5862FBAB720
  5
45D5862FBAB720
331
45D5862FBB01E3
  5
45D5862FBB01E3
331
45D5862FBAB728
  5
45D5862FBAB728
331
45D5862FBB0332
  5
45D5862FBB0332
331
45D5862FBA8D63
  5
45D5862FBA8D63
331
45D5862FBA394D
  5
45D5862FBA394D
331
45D5862FBB033A
  5
45D5862FBB033A
331
45D5862FBB0096
  5
45D5862FBB0096
331
45D5862FBAB730
  5
45D5862FBAB730
331
45D5862FBA8D6B
  5
45D5862FBA8D6B
331
45D5862FBA3955
  5
45D5862FBA3955
331
45D5862FBAB738
  5
45D5862FBAB738
331
45D5862FBB0342
  5
45D5862FBB0342
331
45D5862FBA395D
  5
45D5862FBA395D
331
45D5862FBA2618
  5
45D5862FBA2618
331
45D5862FBB0146
  5
45D5862FBB0146
331
45D5862FBB029B
  5
45D5862FBB029B
331
45D5862FBB1C88
  5
45D5862FBB1C88
331
45D5862FBB0625
  5
45D5862FBB0625
331
45D5862FBB1C90
  5
45D5862FBB1C90
331
45D5862FBB05E6
  5
45D5862FBB05E6
331
45D5862FBB1C98
  5
45D5862FBB1C98
331
45D5862FBB1C59
  5
45D5862FBB1C59
331
45D5862FBB05EE
  5
45D5862FBB05EE
331
45D5862FBB0387
  5
45D5862FBB0387
331
45D5862FBB1C61
  5
45D5862FBB1C61
331
45D5862FBB1CA0
  5
45D5862FBB1CA0
331
45D5862FBA2620
  5
45D5862FBA2620
331
45D5862FBB035A
  5
45D5862FBB035A
331
45D5862FBA2628
  5
45D5862FBA2628
331
45D5862FBB0362
  5
45D5862FBB0362
331
45D5862FBB031B
  5
45D5862FBB031B
331
45D5862FBB0323
  5
45D5862FBB0323
331
45D5862FBB0077
  5
45D5862FBB0077
331
45D5862FBA8D5C
  5
45D5862FBA8D5C
331
45D5862FBB1C69
  5
45D5862FBB1C69
331
45D5862FBB1CA8
  5
45D5862FBB1CA8
331
45D5862FBB1C71
  5
45D5862FBB1C71
331
45D5862FBB1C79
  5
45D5862FBB1C79
331
45D5862FBB061E
  5
45D5862FBB061E
331
45D5862FBB1C81
  5
45D5862FBB1C81
331
45D5862FBAB721
  5
45D5862FBAB721
331
45D5862FBB01E4
  5
45D5862FBB01E4
331
45D5862FBAB729
  5
45D5862FBAB729
331
45D5862FBB0333
  5
45D5862FBB0333
331
45D5862FBA8D64
  5
45D5862FBA8D64
331
45D5862FBA394E
  5
45D5862FBA394E
331
45D5862FBB033B
  5
45D5862FBB033B
331
45D5862FBAB731
  5
45D5862FBAB731
331
45D5862FBA8D6C
  5
45D5862FBA8D6C
331
45D5862FBA2611
  5
45D5862FBA2611
331
45D5862FBA3956
  5
45D5862FBA3956
331
45D5862FBB0343
  5
45D5862FBB0343
331
45D5862FBA395E
  5
45D5862FBA395E
331
45D5862FBA2619
  5
45D5862FBA2619
331
45D5862FBB0370
  5
45D5862FBB0370
331
45D5862FBB1C89
  5
45D5862FBB1C89
331
45D5862FBB0378
  5
45D5862FBB0378
331
45D5862FBB1C91
  5
45D5862FBB1C91
331
45D5862FBB05E7
  5
45D5862FBB05E7
331
45D5862FBB1C99
  5
45D5862FBB1C99
331
45D5862FBB1C5A
  5
45D5862FBB1C5A
331
45D5862FBB05EF
  5
45D5862FBB05EF
331
45D5862FBB0388
  5
45D5862FBB0388
331
45D5862FBB1C62
  5
45D5862FBB1C62
331
45D5862FBB1CA1
  5
45D5862FBB1CA1
  0
XRECORD
  5
45D5862FBAC82E
102
{ACAD_REACTORS
330
45D5862FBAC3C3
102
}
330
45D5862FBAC3C3
100
AcDbXrecord
280
     1
340
45D5862FB9AFAB
  0
GROUP
  5
45D5862FBAF382
102
{ACAD_REACTORS
330
45D5862FB9AFA3
102
}
330
45D5862FB9AFA3
100
AcDbGroup
300

 70
     1
 71
     1
  0
GROUP
  5
45D5862FBAF385
102
{ACAD_REACTORS
330
45D5862FB9AFA3
102
}
330
45D5862FB9AFA3
100
AcDbGroup
300

 70
     1
 71
     1
  0
GROUP
  5
45D5862FBAF388
102
{ACAD_REACTORS
330
45D5862FB9AFA3
102
}
330
45D5862FB9AFA3
100
AcDbGroup
300

 70
     1
 71
     1
  0
GROUP
  5
45D5862FBAFB2F
102
{ACAD_REACTORS
330
45D5862FB9AFA3
102
}
330
45D5862FB9AFA3
100
AcDbGroup
300

 70
     1
 71
     1
  0
GROUP
  5
45D5862FBAFEB0
102
{ACAD_REACTORS
330
45D5862FB9AFA3
102
}
330
45D5862FB9AFA3
100
AcDbGroup
300

 70
     1
 71
     1
  0
GROUP
  5
45D5862FBAFEB7
102
{ACAD_REACTORS
330
45D5862FB9AFA3
102
}
330
45D5862FB9AFA3
100
AcDbGroup
300

 70
     1
 71
     1
340
45D5862FBAFEB1
340
45D5862FBAFEB2
  0
GROUP
  5
45D5862FBB07A0
102
{ACAD_REACTORS
330
45D5862FB9AFA3
102
}
330
45D5862FB9AFA3
100
AcDbGroup
300

 70
     1
 71
     1
  0
LAYOUT
  5
45D5862FBAC362
102
{ACAD_XDICTIONARY
360
45D5862FBB201C
102
}
102
{ACAD_REACTORS
330
45D5862FBAC360
102
}
330
45D5862FBAC360
100
AcDbPlotSettings
  1

  2
Acrobat Distiller
  4
A4
  6
ZOOM_ALL
 40
3.174999952316282
 41
3.174999952316282
 42
3.175003051757812
 43
3.17498779296875
 44
209.9098358154297
 45
297.0318298339843
 46
0.0
 47
26.76
 48
14024.36180564099
 49
-7753.675441007316
140
16004.36180564099
141
-6054.175441007314
142
1.0
143
8.348896619378601
 70
 11956
 72
     1
 73
     1
 74
     4
  7
monochrome.ctb
 75
     0
147
0.1197763064497532
148
-14024.36180564099
149
7753.675441007316
100
AcDbLayout
  1
Model
 70
     1
 71
     0
 10
0.0
 20
0.0
 11
12.0
 21
9.0
 12
0.0
 22
0.0
 32
0.0
 14
0.0
 24
0.0
 34
0.0
 15
0.0
 25
0.0
 35
0.0
146
0.0
 13
0.0
 23
0.0
 33
0.0
 16
1.0
 26
0.0
 36
0.0
 17
0.0
 27
1.0
 37
0.0
 76
     0
330
45D5862FB9AFAE
  0
LAYOUT
  5
45D5862FBAC363
102
{ACAD_XDICTIONARY
360
45D5862FBB201E
102
}
102
{ACAD_REACTORS
330
45D5862FBAC360
102
}
330
45D5862FBAC360
100
AcDbPlotSettings
  1

  2
Symantec Fax Starter Edition
  4

  6

 40
0.0
 41
0.0
 42
0.0
 43
0.0
 44
0.0
 45
0.0
 46
0.0
 47
0.0
 48
0.0
 49
0.0
140
0.0
141
0.0
142
1.0
143
1.0
 70
   688
 72
     0
 73
     0
 74
     5
  7
monochrome.ctb
 75
    16
147
1.0
148
0.0
149
0.0
100
AcDbLayout
  1
ﾚｲｱｳﾄ1
 70
     0
 71
     1
 10
0.0
 20
0.0
 11
12.0
 21
9.0
 12
0.0
 22
0.0
 32
0.0
 14
1.000000000000000E+20
 24
1.000000000000000E+20
 34
1.000000000000000E+20
 15
-1.000000000000000E+20
 25
-1.000000000000000E+20
 35
-1.000000000000000E+20
146
0.0
 13
0.0
 23
0.0
 33
0.0
 16
1.0
 26
0.0
 36
0.0
 17
0.0
 27
1.0
 37
0.0
 76
     0
330
45D5862FB9AFAB
  0
MLINESTYLE
  5
45D5862FB9AFB1
102
{ACAD_REACTORS
330
45D5862FB9AFA4
102
}
330
45D5862FB9AFA4
100
AcDbMlineStyle
  2
STANDARD
 70
     0
  3

 62
     0
 51
90.0
 52
90.0
 71
     2
 49
0.5
 62
   256
  6
BYLAYER
 49
-0.5
 62
   256
  6
BYLAYER
  0
ACDBPLACEHOLDER
  5
45D5862FBAC35F
102
{ACAD_REACTORS
330
45D5862FBAC35E
102
}
330
45D5862FBAC35E
  0
TABLESTYLE
  5
45D5862FBB15F6
102
{ACAD_REACTORS
330
45D5862FBB15F5
102
}
330
45D5862FBB15F5
100
AcDbTableStyle
  3
Standard
 70
     0
 71
     0
 40
0.06
 41
0.06
280
     0
281
     0
  7
STANDARD
140
0.18
170
     2
 62
     0
 63
     7
283
     0
274
    -2
284
     1
 64
     0
275
    -2
285
     1
 65
     0
276
    -2
286
     1
 66
     0
277
    -2
287
     1
 67
     0
278
    -2
288
     1
 68
     0
279
    -2
289
     1
 69
     0
  7
STANDARD
140
0.25
170
     5
 62
     0
 63
     7
283
     0
274
    -2
284
     1
 64
     0
275
    -2
285
     1
 65
     0
276
    -2
286
     1
 66
     0
277
    -2
287
     1
 67
     0
278
    -2
288
     1
 68
     0
279
    -2
289
     1
 69
     0
  7
STANDARD
140
0.18
170
     5
 62
     0
 63
     7
283
     0
274
    -2
284
     1
 64
     0
275
    -2
285
     1
 65
     0
276
    -2
286
     1
 66
     0
277
    -2
287
     1
 67
     0
278
    -2
288
     1
 68
     0
279
    -2
289
     1
 69
     0
  0
DICTIONARYVAR
  5
45D5862FBB15F8
102
{ACAD_REACTORS
330
45D5862FBAD929
102
}
330
45D5862FBAD929
100
DictionaryVariables
280
     0
  1
STANDARD
  0
DICTIONARYVAR
  5
45D5862FBAD92A
102
{ACAD_REACTORS
330
45D5862FBAD929
102
}
330
45D5862FBAD929
100
DictionaryVariables
280
     0
  1
1
  0
DICTIONARYVAR
  5
45D5862FBB15F9
102
{ACAD_REACTORS
330
45D5862FBAD929
102
}
330
45D5862FBAD929
100
DictionaryVariables
280
     0
  1

  0
DICTIONARY
  5
45D5862FBB201C
330
45D5862FBAC362
100
AcDbDictionary
280
     1
281
     1
  3
ACAD_XREC_ROUNDTRIP
360
45D5862FBB201D
  0
DICTIONARY
  5
45D5862FBB201E
330
45D5862FBAC363
100
AcDbDictionary
280
     1
281
     1
  3
ACAD_XREC_ROUNDTRIP
360
45D5862FBB201F
  0
XRECORD
  5
45D5862FBB201D
102
{ACAD_REACTORS
330
45D5862FBB201C
102
}
330
45D5862FBB201C
100
AcDbXrecord
280
     1
102
SHADEPLOT
 70
     0
102
SHADEPLOTRESLEVEL
 70
     2
102
SHADEPLOTCUSTOMDPI
 70
   300
  0
XRECORD
  5
45D5862FBB201F
102
{ACAD_REACTORS
330
45D5862FBB201E
102
}
330
45D5862FBB201E
100
AcDbXrecord
280
     1
102
SHADEPLOT
 70
     0
102
SHADEPLOTRESLEVEL
 70
     2
102
SHADEPLOTCUSTOMDPI
 70
   300
  0
ENDSEC
  0
EOF
